Поиск

(Crossover Jazz, Soul-Jazz) Grover Washington Jr - Prime Cuts 1987 - 1999, APE (image + .cue), lossless

(Crossover Jazz, Soul-Jazz) Grover Washington Jr - Prime Cuts 1987 - 1999, APE (image + .cue), lossless
Треклист:
Grover Washington Jr - Prime Cuts 1987-1999
Страна: USA. Sony Music/Columbia 496862-2
Жанр:Crossover Jazz, Soul-Jazz
Год выпуска: 1999
Формат: APE (image + .cue)
Битрейт аудио: lossless
Продолжительность: 71:13
 
Трэклист:
1. Take Five (Take Another Five)
2. Sacred Kind Of Love
3. Only For You (Siempre Para Ti Sere)
4. Please Send Me Someone To Love
5. Strawberry Moon
6. Summer Nights
7. Heat Index
8. Next Exit
9. Blues For Dp
10. Soulful Strut
11. The Love In His Infant Eyes
12. The Night Fantastic
13. Protect The Dream
14. My foolish heart

 
Отчет ЕАС:
Exact Audio Copy V0.99 prebeta 3 from 28. July 2007
Отчёт EAC об извлечении, выполненном 15. марта 2008, 17:41
Grover Washington Jr / Prime Cuts
Дисковод: YAMAHA CRW8824S Adapter: 4 ID: 1
Режим чтения : Достоверность
Использование точного потока : Да
Отключение кэша аудио : Да
Использование указателей C2 : Нет
Коррекция смещения при чтении : 117
Способность читать области Lead-in и Lead-out : Нет
Заполнение пропущенных сэмплов тишиной : Да
Удаление блоков с тишиной в начале и конце : Нет
При вычислениях CRC использовались нулевые сэмплы : Да
Интерфейс : Установленный внешний ASPI-интерфейс
Выходной формат : Внутренние WAV-операции
Формат сэмплов : 44.100 Гц; 16 бит; стерео
TOC извлечённого CD
Трек | Старт | Длительность | Начальный сектор | Конечный сектор
---------------------------------------------------------------------
1 | 0:00.00 | 5:01.12 | 0 | 22586
2 | 5:01.12 | 5:40.00 | 22587 | 48086
3 | 10:41.12 | 5:15.15 | 48087 | 71726
4 | 15:56.27 | 4:02.05 | 71727 | 89881
5 | 19:58.32 | 4:25.00 | 89882 | 109756
6 | 24:23.32 | 6:14.63 | 109757 | 137869
7 | 30:38.20 | 3:32.47 | 137870 | 153816
8 | 34:10.67 | 5:09.70 | 153817 | 177061
9 | 39:20.62 | 8:29.23 | 177062 | 215259
10 | 47:50.10 | 3:23.10 | 215260 | 230494
11 | 51:13.20 | 4:26.02 | 230495 | 250446
12 | 55:39.22 | 3:07.38 | 250447 | 264509
13 | 58:46.60 | 5:15.47 | 264510 | 288181
14 | 64:02.32 | 7:11.30 | 288182 | 320536
Характеристики диапазона извлечения и сообщения об ошибках
Выбранный диапазон
Имя файла: Grover Washington Jr - Prime Cuts.wav
Пиковый уровень 99.9 %
Качество диапазона 100.0 %
CRC теста 91075C1C
CRC копии 91075C1C
Копирование... OK
Ошибок не произошло
Конец отчёта
Доп. информация: http://www.mymusicbase.ru/PPB/ppb3/Bio_395.htm
 
МОИ РАЗДАЧИ:
Creedence Clearwater Revival - Chronicle. THE 20 GREATEST HITS (1995) 2CD (24 Karat GD). APE (image + .cue), lossless
http://rutracker.org/forum/viewtopic.php?t=1251863
(JAZZ) John Pizzarelli - Live at Birdland. TELARC 2003 (2CD). APE (image + .cue), lossless
http://rutracker.org/forum/viewtopic.php?t=1223535
(Rock)Chuck Berry - St. Louis To Liverpool 2004, USA. APE (image + .cue), lossless
http://rutracker.org/forum/viewtopic.php?t=742217
(Rock) Bay City Rollers - The Definitive Collection 2000, USA. APE (image + .cue), lossless
http://rutracker.org/forum/viewtopic.php?t=742116
(Lounge / Accordeon) Mario Battaini, fisarmonica. A Paris. 1995г. APE (image + .cue), lossless
http://rutracker.org/forum/viewtopic.php?t=1759943
The Who - Tommy. Rock opera. 1975 год. Rock. DVD5
Перезалито в связи с обновами железа и софта.
http://rutracker.org/forum/viewtopic.php?t=475894
Горные лыжи Обучение. Секреты мастерства. DVD9
http://rutracker.org/forum/viewtopic.php?t=371952
Эрмитаж. Санкт-Петербурга. 300 лет. (СЛЧП т/к "Останкино") [1992 г., Образовательный, DVD5]
http://rutracker.org/forum/viewtopic.php?t=447389
Перезалито в связи с обновами железа и софта.
Приватный:
Нет (DHT включён)
Размер:
412.99 Мб (433,051,442 байт) » файлов: 5
Участники:
0 раздают, 0 качают (0 участников всего)
Внешние участники:
2 раздают, 1 качают (3 участников всего) [ Обновить ]
No seeders - write personal message to M0p94ok. Нет сидеров - пишите в личку M0p94ok.
01:37
132
Нет комментариев. Ваш будет первым!