Вы используете незарегистрированную версию компонента "Вкладки"!

Поиск

(jazz, avant-garde) William Parker trio - ...And William Danced 2002 {ayler records}, FLAC (tracks), lossless

(jazz, avant-garde) William Parker trio - ...And William Danced 2002 {ayler records}, FLAC (tracks), lossless
Треклист:


William Parker trio - ...And William Danced
Жанр: jazz, avant-garde
Год выпуска: 2002
Формат: FLAC (tracks)
Битрейт аудио: lossless
Продолжительность
Источник: ed2k

tracks

1 First Dance 17:01
2 The Undertaker's Dance 18:37
3 .... And William Danced 30:22


 
logfile
EAC extraction logfile from 27. January 2008, 21:13 for CD
William parker trio / ... And William danced
Used drive : HL-DT-STDVDRAM GSA-H10N Adapter: 0 ID: 0
Read mode : Secure with NO C2, accurate stream, disable cache
Read offset correction : 667
Overread into Lead-In and Lead-Out : No
Used output format : C:\Program Files\FLAC\flac.exe (User Defined Encoder)
128 kBit/s
Additional command line options : -8 -V -T "ARTIST=%a" -T "TITLE=%t" -T "ALBUM=%g" -T "DATE=%y" -T "TRACKNUMBER=%n" -T "GENRE=%m" -T "COMMENT=EAC FLAC -8" %s
Other options :
Fill up missing offset samples with silence : Yes
Delete leading and trailing silent blocks : No
Native Win32 interface for Win NT & 2000
Track 1
Filename D:\Torrents\William Parker Trio - And William danced (2002) [FLAC]\01 - First Dance.wav
Pre-gap length 0:00:02.00
Peak level 98.6 %
Track quality 100.0 %
Test CRC 21E9D96C
Copy CRC 21E9D96C
Copy OK
Track 2
Filename D:\Torrents\William Parker Trio - And William danced (2002) [FLAC]\02 - The Undertaker's dance.wav
Pre-gap length 0:00:02.00
Peak level 98.6 %
Track quality 100.0 %
Test CRC 19B82309
Copy CRC 19B82309
Copy OK
Track 3
Filename D:\Torrents\William Parker Trio - And William danced (2002) [FLAC]\03 - ... and William danced.wav
Pre-gap length 0:00:02.00
Peak level 98.6 %
Track quality 100.0 %
Test CRC C014AFBA
Copy CRC C014AFBA
Copy OK
No errors occured
End of status report

другие релизы
Any questions -> support@pro-jazz.com. По всем вопросам пишите -> support@pro-jazz.com
16:16
154
Нет комментариев. Ваш будет первым!