Вы используете незарегистрированную версию компонента "Вкладки"!

Поиск

(Post-Bop / Free Jazz) Steve Lacy - Soprano Sax - 1958, FLAC (tracks+.cue), lossless

Треклист:
Steve Lacy - Soprano Sax
Жанр: Post-Bop / Free Jazz
Год выпуска диска: 1958
Производитель диска: США
Аудио кодек: FLAC
Тип рипа: tracks+.cue
Битрейт аудио: lossless
Продолжительность: 34:00
Трэклист:
1. Day Dream 04:25
2. Alone Together 06:47
3. Work 05:27
4. Rockin' In Rhythm 04:08
5. Little Girl Your Daddy Is Calling You 04:35
6. Easy To Love 08:25
Музыканты:
Steve Lacy - soprano saxophone
Wynton Kelly - piano
Buell Neidlinger - bass
Dennis Charles - drums
 
Рецензия на альбом Soprano Sax от allmusic.com (на английском)
This was the first of three recordings soprano saxophonist Steve Lacy made for Prestige and this 11/1/57 session was his first as a leader...There was a controlled tension to this date, like everybody's trying to play, carefully, to a common goal. It's almost as if someone were present to make sure everybody stayed within obvious perimeters.
Bob Rusch, Cadence
 
Рецензия на альбом Soprano Sax от allmusic.com (перевод)
Это была первая из трех записей, которые сопрано саксофонист Steve Lacy сделал для лейбла Prestige и эта сессия 11/1/57 была первой, записанной им в качестве лидера... В этот день чувствовалось контролируемое напряжение, как будто каждый чтарался играть аккуратно для достижения общей цели. Почти так, как будто был кто-то, кто следил за тем, чтобы все оставались всередине некоего периметра.
Боб Раск, Cadence
 
EAC log
EAC extraction logfile from 21. August 2007, 19:05 for CD
Steve Lacy / Soprano Sax
Used drive : PLEXTOR CD-R PREMIUM2 Adapter: 0 ID: 1
Read mode : Secure with NO C2, accurate stream, disable cache
Read offset correction : 30
Overread into Lead-In and Lead-Out : Yes
Used output format : C:\Programme\FLAC\flac.exe (User Defined Encoder)
128 kBit/s
Additional command line options : -5 -V -T "artist=%a" -T "title=%t" -T "album=%g" -T "date=%y" -T "tracknumber=%n" -T "genre=%m" -T "comment=Exact Audio Copy 0.95b4, Flac 1.2.0.a -5" %s
Other options :
Fill up missing offset samples with silence : Yes
Delete leading and trailing silent blocks : No
Installed external ASPI interface
Track 1
Filename C:\Steve Lacy - Soprano Sax (1957) [FLAC] (OJCCD-130-2)\01 - Day Dream.wav
Pre-gap length 0:00:02.00
Peak level 98.7 %
Track quality 100.0 %
Test CRC F2F4B145
Copy CRC F2F4B145
Copy OK
Track 2
Filename C:\Steve Lacy - Soprano Sax (1957) [FLAC] (OJCCD-130-2)\02 - Alone Together.wav
Pre-gap length 0:00:01.62
Peak level 99.5 %
Track quality 100.0 %
Test CRC 1A93676C
Copy CRC 1A93676C
Copy OK
Track 3
Filename C:\Steve Lacy - Soprano Sax (1957) [FLAC] (OJCCD-130-2)\03 - Work.wav
Pre-gap length 0:00:01.89
Peak level 99.8 %
Track quality 100.0 %
Test CRC 44533DEB
Copy CRC 44533DEB
Copy OK
Track 4
Filename C:\Steve Lacy - Soprano Sax (1957) [FLAC] (OJCCD-130-2)\04 - Rockin' In Rhythm.wav
Pre-gap length 0:00:02.16
Peak level 98.9 %
Track quality 100.0 %
Test CRC 4055D955
Copy CRC 4055D955
Copy OK
Track 5
Filename C:\Steve Lacy - Soprano Sax (1957) [FLAC] (OJCCD-130-2)\05 - Little Girl Your Daddy Is Calling You.wav
Pre-gap length 0:00:02.02
Peak level 98.7 %
Track quality 100.0 %
Test CRC 1747D07D
Copy CRC 1747D07D
Copy OK
Track 6
Filename C:\Steve Lacy - Soprano Sax (1957) [FLAC] (OJCCD-130-2)\06 - Easy To Love.wav
Pre-gap length 0:00:02.30
Peak level 99.0 %
Track quality 99.9 %
Test CRC D3715739
Copy CRC D3715739
Copy OK
No errors occured
End of status report
 
можно обратить внимание также на другие lossless релизы свободного и авангардного джаза от laocha на rutracker.org
(Avant-Garde Jazz) Ben Monder Trio - Oceana - 2005, FLAC (image+.cue), lossless
(Avant-Garde Jazz) Ben Monder - Excavation - 2000, FLAC (image+.cue), lossless
(Avant-Garde Jazz) Ben Monder Trio - Flux - 1995, FLAC (image+.cue), lossless
(Avant-Garde Jazz) Cecil Taylor Unit - The Eighth - 1981, FLAC (tracks+.cue), lossless
(Avant-Garde Jazz) Cecil Taylor - Algonquin - 2004, APE (tracks), losless
(Avant-Garde Jazz) Henry Threadgill Very Very Circus - Carry The Day - 1995, FLAC (tracks), lossless
(Avant-Garde Jazz) Henry Threadgill Sextett - Rag, Bush and All - 1989, FLAC (image+.cue), lossless
(Avant-Garde Jazz) Pandelis Karayorgis, Mat Maneri - Disambiguation - 2002, FLAC (tracks+.cue), lossless
(Avant-Garde Jazz) Vinny Golia, Joelle Leandre & Ken Filiano - Haunting the Spirits Inside Them - 1995, APE (image+.cue), lossless
(Avant-Garde / Free Improvisation) Alexander Nesterov, Yuriy Yaremchuk / Александр Нестеров, Юрий Яремчук - Prepared Piano and Soprano Saxophone - 1994, FLAC (tracks+.cue), lossless
(Avant-Garde Jazz / Free Improvisation) Yuriy Yaremchuk, Sergej Zelenskiy / Юрий Яремчук, Сергей Зеленский - Figures - 2002, FLAC (tracks+.cue), lossless
(Avant-Garde Jazz / Free Improvisation) Yuriy Yaremchuk, Mark Tokar / Юрий Яремчук, Марк Токар - Eight Compositions - 2005, FLAC (tracks+.cue), lossless
(Avant-Garde Jazz / Free Improvisation) Yuriy Yaremchuk / Юрий Яремчук - Seven Compositions - 2006, FLAC (tracks+.cue), lossless
Any questions -> support@pro-jazz.com. По всем вопросам пишите -> support@pro-jazz.com
16:15
264
Нет комментариев. Ваш будет первым!