Вы используете незарегистрированную версию компонента "Вкладки"!

Поиск

(Free Jazz) Peter Brotzmann Octet - The Complete Machine Gun Sessions - 1968 (Remastered, Reissue 2007), FLAC (tracks+.cue), lossless

Треклист:
Peter Brotzmann Octet - The Complete Machine Gun Sessions
Жанр: Free Jazz
Год выпуска диска: 1968
Производитель диска: Atavistic Records ATV 262CD
Аудио кодек: FLAC
Тип рипа: tracks+.cue
Битрейт аудио: lossless
Продолжительность: 79:51
Трэклист:
01 Machine Gun 17:19
Written-By - Brötzmann*
02 Responsible / For Jan Van De Ven 8:20
Written-By - Van Hove*
03 Music For Han Bennink 11:29
Written-By - Breuker*
Alternate Takes
04 Machine Gun (Second Take) 15:01
Written-By - Brötzmann*
05 Responsible / For Jan Van De Ven (First Take) 10:08
Written-By - Van Hove*
Machine Gun Live
06 Machine Gun 17:40
Saxophone [Tenor] - Gerd Dudek
Written-By - Brötzmann*
Double Bass - Buschi Niebergall , Peter Kowald
Drums - Han Bennink , Sven-Åke Johansson
Piano - Fred Van Hove
Saxophone [Baritone, Tenor] - Peter Brötzmann
Saxophone [Tenor] - Evan Parker
Saxophone [Tenor], Clarinet [Bass] - Willem Breuker
Producer [Reissue] - John Corbett , Peter Brötzmann
Artwork By [Booklet Design] - Brötzmann
Engineer - Gunther Zipelius (tracks: 1 to 5)
Tracks 1-5 recorded May 1968 at the "Lila Eule" in Bremen.
Track 6 recorded March 24, 1968, live at the Frankfurt Jazz Festival.
Remastered at Experimental Sound Studio, Chicago.
For this reissue, we have resequenced the CD identically to the original LP, self-produced and released on Brötzmann's own BRO label in 1968, followed by the two extant alternative takes. For comparison, UMS has also included the live version, recorded two months earlier at the Frankfurt Jazz Festival.
Доп. информация:
 
EAC extraction logfile
EAC extraction logfile from 15. August 2008, 13:44 for CD
Peter Brotzmann / The Complete Machine Gun Sessions
Used drive : PIONEER DVD-RW DVR-111L Adapter: 0 ID: 1
Read mode : Secure with NO C2, accurate stream, disable cache
Read offset correction : 48
Overread into Lead-In and Lead-Out : No
Used output format : C:\Program Files\FLAC\flac.exe (User Defined Encoder)
128 kBit/s
Additional command line options : -8 -V -T "ARTIST=%a" -T "TITLE=%t" -T "ALBUM=%g" -T "DATE=%y" -T "TRACKNUMBER=%n" -T "GENRE=%m" -T "COMMENT=EAC FLAC -8" %s
Other options :
Fill up missing offset samples with silence : Yes
Delete leading and trailing silent blocks : No
Installed external ASPI interface
Track 1
Filename C:\The Peter Brotzmann Octet - The Complete Machine Gun Sessions (1968) {Atavistic, 2007}\01 - Machine Gun.wav
Pre-gap length 0:00:02.00
Peak level 94.2 %
Track quality 100.0 %
Test CRC 3A3C7534
Copy CRC 3A3C7534
Copy OK
Track 2
Filename C:\The Peter Brotzmann Octet - The Complete Machine Gun Sessions (1968) {Atavistic, 2007}\02 - Responsible,For Jan Van Den Ven.wav
Pre-gap length 0:00:01.51
Peak level 70.6 %
Track quality 100.0 %
Test CRC 1A7391C6
Copy CRC 1A7391C6
Copy OK
Track 3
Filename C:\The Peter Brotzmann Octet - The Complete Machine Gun Sessions (1968) {Atavistic, 2007}\03 - Music for Han Bennink.wav
Pre-gap length 0:00:01.49
Peak level 93.2 %
Track quality 100.0 %
Test CRC 43E87769
Copy CRC 43E87769
Copy OK
Track 4
Filename C:\The Peter Brotzmann Octet - The Complete Machine Gun Sessions (1968) {Atavistic, 2007}\04 - Machine Gun, second take.wav
Pre-gap length 0:00:03.49
Peak level 90.1 %
Track quality 100.0 %
Test CRC 1B9713F5
Copy CRC 1B9713F5
Copy OK
Track 5
Filename C:\The Peter Brotzmann Octet - The Complete Machine Gun Sessions (1968) {Atavistic, 2007}\05 - Responsible,For Jan Van Den Ven, first take.wav
Pre-gap length 0:00:01.32
Peak level 85.1 %
Track quality 100.0 %
Test CRC DD2A916B
Copy CRC DD2A916B
Copy OK
Track 6
Filename C:\The Peter Brotzmann Octet - The Complete Machine Gun Sessions (1968) {Atavistic, 2007}\06 - Machine Gun (Live).wav
Pre-gap length 0:00:03.31
Peak level 87.6 %
Track quality 100.0 %
Test CRC 1C7FE292
Copy CRC 1C7FE292
Copy OK
No errors occured
End of status report
По всем вопросам пишите личное сообщение пользователю M0p94ok.
16:17
414
Нет комментариев. Ваш будет первым!