Вы используете незарегистрированную версию компонента "Вкладки"!

Поиск

(jazz, avant-garde) Joseph Jarman - Lifetime Vision for the Magnificent Human (2000), FLAC (tracks+.cue), lossless

Треклист:
 
*
 
*

Joseph Jarman
Lifetime Visions for the Magnificent Human
Жанр: jazz
Год выпуска: 2000
Формат: FLAC (tracks+.cue)
Битрейт аудио: lossless
Продолжительность
Источник: ed2k

tracks

01 - Eyes of the Charm Giver
02 - New Player for Jimbo III
03 - Remembering Paris
04 - Reflections on the Predestined One
05 - Mantra for the New Millenium
06 - Lifetime visions for the Magnificent Humans


 
logfile
EAC extraction logfile from 9. May 2008, 20:34 for CD
Joseph Jarman / Lifetime Visions
Used drive : TDK CDRW5200B Adapter: 1 ID: 1
Read mode : Secure with NO C2, accurate stream, disable cache
Read offset correction : 6
Overread into Lead-In and Lead-Out : No
Used output format : Internal WAV Routines
44.100 Hz; 16 Bit; Stereo
Other options :
Fill up missing offset samples with silence : Yes
Delete leading and trailing silent blocks : No
Native Win32 interface for Win NT & 2000
Track 1
Filename C:\01 - Eyes of the Charm Giver.wav
Pre-gap length 0:00:02.00
Peak level 54.2 %
Track quality 99.9 %
Test CRC 6F326521
Copy CRC 6F326521
Copy OK
Track 2
Filename C:\02 - New Player for Jimbo III.wav
Pre-gap length 0:00:02.74
Peak level 85.4 %
Track quality 100.0 %
Test CRC DA556746
Copy CRC DA556746
Copy OK
Track 3
Filename C:\03 - Remembering Paris.wav
Pre-gap length 0:00:02.74
Peak level 85.7 %
Track quality 100.0 %
Test CRC 449C4FC6
Copy CRC 449C4FC6
Copy OK
Track 4
Filename C:\04 - Reflections on the Predestined One.wav
Pre-gap length 0:00:02.74
Peak level 55.8 %
Track quality 100.0 %
Test CRC 15675443
Copy CRC 15675443
Copy OK
Track 5
Filename C:\05 - Mantra for the New Millenium.wav
Pre-gap length 0:00:02.73
Peak level 87.5 %
Track quality 100.0 %
Test CRC 2421747C
Copy CRC 2421747C
Copy OK
Track 6
Filename C:\06 - Lifetime visions for the Magnificent Humans.wav
Pre-gap length 0:00:02.74
Peak level 40.6 %
Track quality 100.0 %
Test CRC 6CAAB386
Copy CRC 6CAAB386
Copy OK
No errors occured
End of status report
------------------------------------------------------------
EAC extraction logfile from 9. May 2008, 20:34 for CD
Joseph Jarman / Lifetime Visions
Used drive : TDK CDRW5200B Adapter: 1 ID: 1
Read mode : Secure with NO C2, accurate stream, disable cache
Read offset correction : 6
Overread into Lead-In and Lead-Out : No
Used output format : Internal WAV Routines
44.100 Hz; 16 Bit; Stereo
Other options :
Fill up missing offset samples with silence : Yes
Delete leading and trailing silent blocks : No
Native Win32 interface for Win NT & 2000
Track 1
Filename C:\01 - Eyes of the Charm Giver.wav
Pre-gap length 0:00:02.00
Peak level 54.2 %
Track quality 99.9 %
Test CRC 6F326521
Copy CRC 6F326521
Copy OK
Track 2
Filename C:\02 - New Player for Jimbo III.wav
Pre-gap length 0:00:02.74
Peak level 85.4 %
Track quality 100.0 %
Test CRC DA556746
Copy CRC DA556746
Copy OK
Track 3
Filename C:\03 - Remembering Paris.wav
Pre-gap length 0:00:02.74
Peak level 85.7 %
Track quality 100.0 %
Test CRC 449C4FC6
Copy CRC 449C4FC6
Copy OK
Track 4
Filename C:\04 - Reflections on the Predestined One.wav
Pre-gap length 0:00:02.74
Peak level 55.8 %
Track quality 100.0 %
Test CRC 15675443
Copy CRC 15675443
Copy OK
Track 5
Filename C:\05 - Mantra for the New Millenium.wav
Pre-gap length 0:00:02.73
Peak level 87.5 %
Track quality 100.0 %
Test CRC 2421747C
Copy CRC 2421747C
Copy OK
Track 6
Filename C:\06 - Lifetime visions for the Magnificent Humans.wav
Pre-gap length 0:00:02.74
Peak level 40.6 %
Track quality 100.0 %
Test CRC 6CAAB386
Copy CRC 6CAAB386
Copy OK
No errors occured
End of status report

другие релизы
Any questions -> support@pro-jazz.com. По всем вопросам пишите -> support@pro-jazz.com
13:53
291
Нет комментариев. Ваш будет первым!