Вы используете незарегистрированную версию компонента "Вкладки"!

Поиск

(Avant-Garde, Experimental, Tzadik) Carla Kihlstedt - 2 Foot Yard - 2003, FLAC (tracks+.cue), lossless

(Avant-Garde, Experimental, Tzadik) Carla Kihlstedt - 2 Foot Yard - 2003, FLAC (tracks+.cue), lossless
Треклист:
Carla Kihlstedt - 2 Foot Yard
Жанр: Avant-Garde, Experimental, Tzadik
Год выпуска диска: 2003
Производитель диска: US
Аудио кодек: FLAC
Тип рипа: tracks+.cue
Битрейт аудио: lossless
Продолжительность: 54:10
Трэклист:
1 Empty Cupboard (2:07)
2 World Of Made (0:56)
3 Peel (2:49)
4 Rooting For The Shy Librarian (2:21)
5 Gone (1:40)
6 Flash Flood (1:07)
7 Last Resort (3:38)
8 Tough Guy (2:15)
9 Lovely Ugly (1:30)
10 50 Miles (6:09)
11 Flinch (3:29)
12 Gravity (3:11)
13 No One Nicer (3:13)
14 Trampolina (3:29)
15 Far And Wee (1:31)
16 History (3:19)
17 Another Day (1:58)
18 Patcheen (1:48)
19 On Waking (4:08)
20 When Will Tomorrow End? (3:00)
Accordion, Viola, Violin, Voice, Zither, Melodica, Harmonica [Bass] - Carla Kihlstedt
Cello - Marika Hughes
Drums, Cajon, Acoustic Guitar - Shahzad Ismaily
Percussion - Shahzad Ismaily (tracks: 1, 5, 10 to 12, 14)
Доп. информация:
 
EAC log
Exact Audio Copy V0.99 prebeta 4 from 23. January 2008
EAC extraction logfile from 3. June 2009, 13:09
Carla Kihlstedt / 2 Foot Yard
Used drive : Optiarc DVD RW AD-7200S Adapter: 1 ID: 0
Read mode : Secure
Utilize accurate stream : Yes
Defeat audio cache : Yes
Make use of C2 pointers : No
Read offset correction : 48
Overread into Lead-In and Lead-Out : No
Fill up missing offset samples with silence : Yes
Delete leading and trailing silent blocks : No
Null samples used in CRC calculations : Yes
Used interface : Native Win32 interface for Win NT & 2000
Gap handling : Appended to previous track
Used output format : User Defined Encoder
Selected bitrate : 128 kBit/s
Quality : High
Add ID3 tag : No
Command line compressor : C:\Program Files (x86)\Exact Audio Copy\Flac\flac.exe
Additional command line options : -V -8 -T "artist=%a" -T "title=%t" -T "album=%g" -T "date=%y" -T "tracknumber=%n" -T "genre=%m" %s
TOC of the extracted CD
Track | Start | Length | Start sector | End sector
---------------------------------------------------------
1 | 0:00.00 | 2:08.64 | 0 | 9663
2 | 2:08.64 | 0:57.72 | 9664 | 14010
3 | 3:06.61 | 2:50.03 | 14011 | 26763
4 | 5:56.64 | 2:23.10 | 26764 | 37498
5 | 8:19.74 | 1:41.13 | 37499 | 45086
6 | 10:01.12 | 1:08.37 | 45087 | 50223
7 | 11:09.49 | 3:39.13 | 50224 | 66661
8 | 14:48.62 | 2:15.01 | 66662 | 76787
9 | 17:03.63 | 1:32.07 | 76788 | 83694
10 | 18:35.70 | 6:10.44 | 83695 | 111488
11 | 24:46.39 | 3:32.03 | 111489 | 127391
12 | 28:18.42 | 3:11.50 | 127392 | 141766
13 | 31:30.17 | 3:14.10 | 141767 | 156326
14 | 34:44.27 | 3:30.00 | 156327 | 172076
15 | 38:14.27 | 1:35.11 | 172077 | 179212
16 | 39:49.38 | 3:20.02 | 179213 | 194214
17 | 43:09.40 | 1:58.30 | 194215 | 203094
18 | 45:07.70 | 1:48.67 | 203095 | 211261
19 | 46:56.62 | 4:13.35 | 211262 | 230271
20 | 51:10.22 | 3:00.04 | 230272 | 243775
Track 1
Filename K:\Music\Carla Kihlstedt\2 Foot Yard\01 Empty Cupboard.wav
Pre-gap length 0:00:02.00
Peak level 100.0 %
Track quality 99.9 %
Test CRC E94092AD
Copy CRC E94092AD
Accurately ripped (confidence 1) [40FBE686]
Copy OK
All tracks accurately ripped
No errors occurred
End of status report
------------------------------------------------------------
Exact Audio Copy V0.99 prebeta 4 from 23. January 2008
EAC extraction logfile from 3. June 2009, 16:00
Carla Kihlstedt / 2 Foot Yard
Used drive : Optiarc DVD RW AD-7200S Adapter: 1 ID: 0
Read mode : Secure
Utilize accurate stream : Yes
Defeat audio cache : Yes
Make use of C2 pointers : No
Read offset correction : 48
Overread into Lead-In and Lead-Out : No
Fill up missing offset samples with silence : Yes
Delete leading and trailing silent blocks : No
Null samples used in CRC calculations : Yes
Used interface : Native Win32 interface for Win NT & 2000
Gap handling : Appended to previous track
Used output format : User Defined Encoder
Selected bitrate : 128 kBit/s
Quality : High
Add ID3 tag : No
Command line compressor : C:\Program Files (x86)\Exact Audio Copy\Flac\flac.exe
Additional command line options : -V -8 -T "artist=%a" -T "title=%t" -T "album=%g" -T "date=%y" -T "tracknumber=%n" -T "genre=%m" %s
TOC of the extracted CD
Track | Start | Length | Start sector | End sector
---------------------------------------------------------
1 | 0:00.00 | 2:08.64 | 0 | 9663
2 | 2:08.64 | 0:57.72 | 9664 | 14010
3 | 3:06.61 | 2:50.03 | 14011 | 26763
4 | 5:56.64 | 2:23.10 | 26764 | 37498
5 | 8:19.74 | 1:41.13 | 37499 | 45086
6 | 10:01.12 | 1:08.37 | 45087 | 50223
7 | 11:09.49 | 3:39.13 | 50224 | 66661
8 | 14:48.62 | 2:15.01 | 66662 | 76787
9 | 17:03.63 | 1:32.07 | 76788 | 83694
10 | 18:35.70 | 6:10.44 | 83695 | 111488
11 | 24:46.39 | 3:32.03 | 111489 | 127391
12 | 28:18.42 | 3:11.50 | 127392 | 141766
13 | 31:30.17 | 3:14.10 | 141767 | 156326
14 | 34:44.27 | 3:30.00 | 156327 | 172076
15 | 38:14.27 | 1:35.11 | 172077 | 179212
16 | 39:49.38 | 3:20.02 | 179213 | 194214
17 | 43:09.40 | 1:58.30 | 194215 | 203094
18 | 45:07.70 | 1:48.67 | 203095 | 211261
19 | 46:56.62 | 4:13.35 | 211262 | 230271
20 | 51:10.22 | 3:00.04 | 230272 | 243775
Track 1
Filename K:\Music\Carla Kihlstedt\2 Foot Yard\01 Empty Cupboard.wav
Pre-gap length 0:00:02.00
Peak level 100.0 %
Track quality 99.9 %
Test CRC E94092AD
Copy CRC E94092AD
Accurately ripped (confidence 1) [40FBE686]
Copy OK
Track 2
Filename K:\Music\Carla Kihlstedt\2 Foot Yard\02 World of Made.wav
Pre-gap length 0:00:01.31
Peak level 98.8 %
Track quality 100.0 %
Test CRC ACD5CAE1
Copy CRC ACD5CAE1
Accurately ripped (confidence 1) [F12BDC5F]
Copy OK
Track 3
Filename K:\Music\Carla Kihlstedt\2 Foot Yard\03 Peel.wav
Pre-gap length 0:00:01.64
Peak level 98.8 %
Track quality 100.0 %
Test CRC E464797C
Copy CRC E464797C
Accurately ripped (confidence 1) [0EB9A4A6]
Copy OK
Track 4
Filename K:\Music\Carla Kihlstedt\2 Foot Yard\04 Rooting For The Shy Librarian.wav
Peak level 98.8 %
Track quality 99.9 %
Test CRC 14B5EAE9
Copy CRC 14B5EAE9
Accurately ripped (confidence 1) [71005FD1]
Copy OK
Track 5
Filename K:\Music\Carla Kihlstedt\2 Foot Yard\05 Gone.wav
Pre-gap length 0:00:02.21
Peak level 98.8 %
Track quality 100.0 %
Test CRC 2150BEF3
Copy CRC 2150BEF3
Accurately ripped (confidence 1) [E41F28DC]
Copy OK
Track 6
Filename K:\Music\Carla Kihlstedt\2 Foot Yard\06 Flash Flood.wav
Pre-gap length 0:00:01.18
Peak level 98.8 %
Track quality 100.0 %
Test CRC A79BC48F
Copy CRC A79BC48F
Accurately ripped (confidence 1) [B98149EA]
Copy OK
Track 7
Filename K:\Music\Carla Kihlstedt\2 Foot Yard\07 Last Resort.wav
Pre-gap length 0:00:01.11
Peak level 86.8 %
Track quality 99.9 %
Test CRC 616E5520
Copy CRC 616E5520
Accurately ripped (confidence 1) [73A01D49]
Copy OK
Track 8
Filename K:\Music\Carla Kihlstedt\2 Foot Yard\08 Tough Guy.wav
Pre-gap length 0:00:01.08
Peak level 98.8 %
Track quality 100.0 %
Test CRC A9434EAB
Copy CRC A9434EAB
Accurately ripped (confidence 1) [DCAE0EA6]
Copy OK
Track 9
Filename K:\Music\Carla Kihlstedt\2 Foot Yard\09 Lovely Ugly.wav
Peak level 98.8 %
Track quality 100.0 %
Test CRC A0C4C268
Copy CRC A0C4C268
Accurately ripped (confidence 1) [9B7C56F6]
Copy OK
Track 10
Filename K:\Music\Carla Kihlstedt\2 Foot Yard\10 50 Miles.wav
Pre-gap length 0:00:02.21
Peak level 98.8 %
Track quality 99.9 %
Test CRC 91F6263E
Copy CRC 91F6263E
Accurately ripped (confidence 1) [C0C87966]
Copy OK
Track 11
Filename K:\Music\Carla Kihlstedt\2 Foot Yard\11 Flinch.wav
Peak level 98.8 %
Track quality 100.0 %
Test CRC 731068A8
Copy CRC 731068A8
Accurately ripped (confidence 1) [4F4F5442]
Copy OK
Track 12
Filename K:\Music\Carla Kihlstedt\2 Foot Yard\12 Gravity.wav
Pre-gap length 0:00:02.28
Peak level 98.8 %
Track quality 100.0 %
Test CRC 8F84F3FD
Copy CRC 8F84F3FD
Accurately ripped (confidence 1) [A382683D]
Copy OK
Track 13
Filename K:\Music\Carla Kihlstedt\2 Foot Yard\13 No One Nicer.wav
Peak level 98.8 %
Track quality 100.0 %
Test CRC BF5B85C5
Copy CRC BF5B85C5
Accurately ripped (confidence 1) [33CB6EEE]
Copy OK
Track 14
Filename K:\Music\Carla Kihlstedt\2 Foot Yard\14 Trampolina.wav
Peak level 98.8 %
Track quality 100.0 %
Test CRC 264BA3FB
Copy CRC 264BA3FB
Accurately ripped (confidence 1) [D0DFC056]
Copy OK
Track 15
Filename K:\Music\Carla Kihlstedt\2 Foot Yard\15 Far and Wee.wav
Peak level 83.1 %
Track quality 100.0 %
Test CRC D306C599
Copy CRC D306C599
Accurately ripped (confidence 1) [254A27AC]
Copy OK
Track 16
Filename K:\Music\Carla Kihlstedt\2 Foot Yard\16 History.wav
Peak level 100.0 %
Track quality 100.0 %
Test CRC 0E2C24C7
Copy CRC 0E2C24C7
Accurately ripped (confidence 1) [571D4D34]
Copy OK
Track 17
Filename K:\Music\Carla Kihlstedt\2 Foot Yard\17 Another Day.wav
Pre-gap length 0:00:01.04
Peak level 98.8 %
Track quality 100.0 %
Test CRC 87AB843E
Copy CRC 87AB843E
Accurately ripped (confidence 1) [C4A83A57]
Copy OK
Track 18
Filename K:\Music\Carla Kihlstedt\2 Foot Yard\18 Patchen.wav
Peak level 98.8 %
Track quality 99.9 %
Test CRC 663043D8
Copy CRC 663043D8
Accurately ripped (confidence 1) [0B545931]
Copy OK
Track 19
Filename K:\Music\Carla Kihlstedt\2 Foot Yard\19 On Waking.wav
Peak level 98.8 %
Track quality 100.0 %
Test CRC 8C0ED530
Copy CRC 8C0ED530
Accurately ripped (confidence 1) [8F87D87B]
Copy OK
Track 20
Filename K:\Music\Carla Kihlstedt\2 Foot Yard\20 When Will Tomorrow End .wav
Pre-gap length 0:00:05.37
Peak level 94.8 %
Track quality 100.0 %
Test CRC E704C1E1
Copy CRC E704C1E1
Accurately ripped (confidence 1) [8BC7CF1F]
Copy OK
All tracks accurately ripped
No errors occurred
End of status report
 
Tzadik
Carla Kihlstedt is one of the most versatile violinists in new music, is much at home performing Stravinsky’s Histoire du Solidat on the concert stage, swinging jazz solos in the popular Tin Hat Trio, scraping noise improvisations with Derek Bailey or rocking out at CBGBs with her SF based band Sleepytime Gorilla Museum. 2 Foot Yard, her first CD under her own name is a creative compendium of genre-breaking instrumentals and vocal miniatures, featuring some of the greatest performers out of the exciting SF/Bay Area scene.
Any questions -> support@pro-jazz.com. По всем вопросам пишите -> support@pro-jazz.com
13:54
212
Нет комментариев. Ваш будет первым!