Вы используете незарегистрированную версию компонента "Вкладки"!

Поиск

(Avant-Garde Jazz / Free Jazz) Matthew Shipp Trio - Harmonic Disorder - 2009, FLAC (tracks+.cue), lossless

(Avant-Garde Jazz / Free Jazz) Matthew Shipp Trio - Harmonic Disorder - 2009, FLAC (tracks+.cue), lossless
Треклист:
Matthew Shipp Trio - Harmonic Disorder
Жанр: Avant-Garde Jazz / Free Jazz
Год выпуска : 2009
Лейбл: Thirsty Ear
Аудио кодек: FLAC
Тип рипа: tracks+.cue
Битрейт аудио: lossless
Продолжительность: 00:54:53
Рип: What CD


01. Gng (4:35)
02. There Will Never Be Another You (3:15)
03. Harmonic Disorder (5:29)
04. Someday My Prince Will Come (3:52)
05. Mel Chi 2 (1:56)
06. Mr. Jm (4:33)
07. Mel Chi 1 (1:48)
08. Roe (5:13)
09. Orb (3:16)
10. Compost (4:06)
11. Zo Number 2 (6:18)
12. Quantum Waves (4:54)
13. Light (3:01)
14. When the Curtain Falls on the Jazz Theatre (2:37)

 
XLD
X Lossless Decoder version 20090320 (105.1)
XLD extraction logfile from 2009-08-21 19:26:46 -0700
Matthew Shipp Trio / Harmonic Disorder
Used drive : MATSHITA DVD-R UJ-867 (revision HA13)
Use cdparanoia mode : YES (CDParanoia III 10.2 engine)
Disable audio cache : OK for the drive with cache less than 2750KB
Make use of C2 pointers : NO
Read offset correction : 102
Max retry count : 100
TOC of the extracted CD
Track | Start | Length | Start sector | End sector
---------------------------------------------------------
1 | 00:00:00 | 04:34:42 | 0 | 20591
2 | 04:34:42 | 03:14:70 | 20592 | 35211
3 | 07:49:37 | 05:29:19 | 35212 | 59905
4 | 13:18:56 | 03:52:17 | 59906 | 77322
5 | 17:10:73 | 01:55:55 | 77323 | 86002
6 | 19:06:53 | 04:33:19 | 86003 | 106496
7 | 23:39:72 | 01:47:39 | 106497 | 114560
8 | 25:27:36 | 05:13:15 | 114561 | 138050
9 | 30:40:51 | 03:16:23 | 138051 | 152773
10 | 33:56:74 | 04:05:52 | 152774 | 171200
11 | 38:02:51 | 06:18:17 | 171201 | 199567
12 | 44:20:68 | 04:54:12 | 199568 | 221629
13 | 49:15:05 | 03:01:07 | 221630 | 235211
14 | 52:16:12 | 02:37:29 | 235212 | 247015
Track 01
Filename : /Users/thomasshea/Desktop/Matthew Shipp - Harmonic Disorder [FLAC]/01 Matthew Shipp Trio - Gng.flac
CRC32 hash (test run) : 373A72A7
CRC32 hash : 373A72A7
CRC32 hash (skip zero) : A5130B7A
AccurateRip signature : F7AB333A
->Accurately ripped! (confidence 2)
Statistics
Read error : 0
Skipped (treated as error) : 0
Edge jitter error (maybe fixed) : 0
Atom jitter error (maybe fixed) : 0
Drift error (maybe fixed) : 0
Dropped bytes error (maybe fixed) : 0
Duplicated bytes error (maybe fixed) : 0
Track 02
Filename : /Users/thomasshea/Desktop/Matthew Shipp - Harmonic Disorder [FLAC]/02 Matthew Shipp Trio - There Will Never Be Another You.flac
CRC32 hash (test run) : 4FBA0EB0
CRC32 hash : 4FBA0EB0
CRC32 hash (skip zero) : BC733AB9
AccurateRip signature : 5FA96F22
->Accurately ripped! (confidence 2)
Statistics
Read error : 0
Skipped (treated as error) : 0
Edge jitter error (maybe fixed) : 0
Atom jitter error (maybe fixed) : 0
Drift error (maybe fixed) : 0
Dropped bytes error (maybe fixed) : 0
Duplicated bytes error (maybe fixed) : 0
Track 03
Filename : /Users/thomasshea/Desktop/Matthew Shipp - Harmonic Disorder [FLAC]/03 Matthew Shipp Trio - Harmonic Disorder.flac
CRC32 hash (test run) : DBA1B441
CRC32 hash : DBA1B441
CRC32 hash (skip zero) : E221C90D
AccurateRip signature : 1D63DF8D
->Accurately ripped! (confidence 2)
Statistics
Read error : 0
Skipped (treated as error) : 0
Edge jitter error (maybe fixed) : 0
Atom jitter error (maybe fixed) : 0
Drift error (maybe fixed) : 0
Dropped bytes error (maybe fixed) : 0
Duplicated bytes error (maybe fixed) : 0
Track 04
Filename : /Users/thomasshea/Desktop/Matthew Shipp - Harmonic Disorder [FLAC]/04 Matthew Shipp Trio - Someday My Prince Will Come.flac
CRC32 hash (test run) : E60103CF
CRC32 hash : E60103CF
CRC32 hash (skip zero) : 8EF41A3A
AccurateRip signature : C5D94B46
->Accurately ripped! (confidence 2)
Statistics
Read error : 0
Skipped (treated as error) : 0
Edge jitter error (maybe fixed) : 0
Atom jitter error (maybe fixed) : 0
Drift error (maybe fixed) : 0
Dropped bytes error (maybe fixed) : 0
Duplicated bytes error (maybe fixed) : 0
Track 05
Filename : /Users/thomasshea/Desktop/Matthew Shipp - Harmonic Disorder [FLAC]/05 Matthew Shipp Trio - Mel Chi 2.flac
CRC32 hash (test run) : 14C632D1
CRC32 hash : 14C632D1
CRC32 hash (skip zero) : B22B2FA2
AccurateRip signature : 04B7BBD5
->Accurately ripped! (confidence 2)
Statistics
Read error : 0
Skipped (treated as error) : 0
Edge jitter error (maybe fixed) : 0
Atom jitter error (maybe fixed) : 0
Drift error (maybe fixed) : 0
Dropped bytes error (maybe fixed) : 0
Duplicated bytes error (maybe fixed) : 0
Track 06
Filename : /Users/thomasshea/Desktop/Matthew Shipp - Harmonic Disorder [FLAC]/06 Matthew Shipp Trio - Mr. Jm.flac
CRC32 hash (test run) : EF4568C7
CRC32 hash : EF4568C7
CRC32 hash (skip zero) : 6C4FB7F4
AccurateRip signature : 79182DB8
->Accurately ripped! (confidence 2)
Statistics
Read error : 0
Skipped (treated as error) : 0
Edge jitter error (maybe fixed) : 0
Atom jitter error (maybe fixed) : 0
Drift error (maybe fixed) : 0
Dropped bytes error (maybe fixed) : 0
Duplicated bytes error (maybe fixed) : 0
Track 07
Filename : /Users/thomasshea/Desktop/Matthew Shipp - Harmonic Disorder [FLAC]/07 Matthew Shipp Trio - Mel Chi 1.flac
CRC32 hash (test run) : 8007BAAB
CRC32 hash : 8007BAAB
CRC32 hash (skip zero) : 04342B64
AccurateRip signature : F52C6F37
->Accurately ripped! (confidence 2)
Statistics
Read error : 0
Skipped (treated as error) : 0
Edge jitter error (maybe fixed) : 0
Atom jitter error (maybe fixed) : 0
Drift error (maybe fixed) : 0
Dropped bytes error (maybe fixed) : 0
Duplicated bytes error (maybe fixed) : 0
Track 08
Filename : /Users/thomasshea/Desktop/Matthew Shipp - Harmonic Disorder [FLAC]/08 Matthew Shipp Trio - Roe.flac
CRC32 hash (test run) : FEB71287
CRC32 hash : FEB71287
CRC32 hash (skip zero) : B0C875AF
AccurateRip signature : E0B2954F
->Accurately ripped! (confidence 2)
Statistics
Read error : 0
Skipped (treated as error) : 0
Edge jitter error (maybe fixed) : 0
Atom jitter error (maybe fixed) : 0
Drift error (maybe fixed) : 0
Dropped bytes error (maybe fixed) : 0
Duplicated bytes error (maybe fixed) : 0
Track 09
Filename : /Users/thomasshea/Desktop/Matthew Shipp - Harmonic Disorder [FLAC]/09 Matthew Shipp Trio - Orb.flac
CRC32 hash (test run) : 9DAF6D02
CRC32 hash : 9DAF6D02
CRC32 hash (skip zero) : A564A243
AccurateRip signature : DA7ADF80
->Accurately ripped! (confidence 2)
Statistics
Read error : 0
Skipped (treated as error) : 0
Edge jitter error (maybe fixed) : 0
Atom jitter error (maybe fixed) : 0
Drift error (maybe fixed) : 0
Dropped bytes error (maybe fixed) : 0
Duplicated bytes error (maybe fixed) : 0
Track 10
Filename : /Users/thomasshea/Desktop/Matthew Shipp - Harmonic Disorder [FLAC]/10 Matthew Shipp Trio - Compost.flac
CRC32 hash (test run) : 40E6AE01
CRC32 hash : 40E6AE01
CRC32 hash (skip zero) : 3B14A74D
AccurateRip signature : CDFC8C48
->Accurately ripped! (confidence 2)
Statistics
Read error : 0
Skipped (treated as error) : 0
Edge jitter error (maybe fixed) : 0
Atom jitter error (maybe fixed) : 0
Drift error (maybe fixed) : 0
Dropped bytes error (maybe fixed) : 0
Duplicated bytes error (maybe fixed) : 0
Track 11
Filename : /Users/thomasshea/Desktop/Matthew Shipp - Harmonic Disorder [FLAC]/11 Matthew Shipp Trio - Zo Number 2.flac
CRC32 hash (test run) : A9E7C082
CRC32 hash : A9E7C082
CRC32 hash (skip zero) : B20BA91D
AccurateRip signature : 164070E9
->Accurately ripped! (confidence 2)
Statistics
Read error : 0
Skipped (treated as error) : 0
Edge jitter error (maybe fixed) : 0
Atom jitter error (maybe fixed) : 0
Drift error (maybe fixed) : 0
Dropped bytes error (maybe fixed) : 0
Duplicated bytes error (maybe fixed) : 0
Track 12
Filename : /Users/thomasshea/Desktop/Matthew Shipp - Harmonic Disorder [FLAC]/12 Matthew Shipp Trio - Quantum Waves.flac
CRC32 hash (test run) : 7F94B948
CRC32 hash : 7F94B948
CRC32 hash (skip zero) : 7227692A
AccurateRip signature : 2603C1D6
->Accurately ripped! (confidence 2)
Statistics
Read error : 0
Skipped (treated as error) : 0
Edge jitter error (maybe fixed) : 0
Atom jitter error (maybe fixed) : 0
Drift error (maybe fixed) : 0
Dropped bytes error (maybe fixed) : 0
Duplicated bytes error (maybe fixed) : 0
Track 13
Filename : /Users/thomasshea/Desktop/Matthew Shipp - Harmonic Disorder [FLAC]/13 Matthew Shipp Trio - Light.flac
CRC32 hash (test run) : D891001E
CRC32 hash : D891001E
CRC32 hash (skip zero) : A43BCAF5
AccurateRip signature : 898D9DAC
->Accurately ripped! (confidence 2)
Statistics
Read error : 0
Skipped (treated as error) : 0
Edge jitter error (maybe fixed) : 0
Atom jitter error (maybe fixed) : 0
Drift error (maybe fixed) : 0
Dropped bytes error (maybe fixed) : 0
Duplicated bytes error (maybe fixed) : 0
Track 14
Filename : /Users/thomasshea/Desktop/Matthew Shipp - Harmonic Disorder [FLAC]/14 Matthew Shipp Trio - When the Curtain Falls on the Jazz Theatre.flac
CRC32 hash (test run) : 2D6EF189
CRC32 hash : 2D6EF189
CRC32 hash (skip zero) : 6A52CF0E
AccurateRip signature : 46850BA8
->Accurately ripped! (confidence 2)
Statistics
Read error : 0
Skipped (treated as error) : 0
Edge jitter error (maybe fixed) : 0
Atom jitter error (maybe fixed) : 0
Drift error (maybe fixed) : 0
Dropped bytes error (maybe fixed) : 0
Duplicated bytes error (maybe fixed) : 0
No errors occurred
End of status report
 
CUE
PERFORMER "Matthew Shipp Trio"
TITLE "Harmonic Disorder"
REM GENRE "Post Bop"
REM DATE 2009
FILE "01 Matthew Shipp Trio - Gng.wav" WAVE
TRACK 01 AUDIO
TITLE "Gng"
INDEX 01 00:00:00
FILE "02 Matthew Shipp Trio - There Will Never Be Another You.wav" WAVE
TRACK 02 AUDIO
TITLE "There Will Never Be Another You"
INDEX 01 00:00:00
TRACK 03 AUDIO
TITLE "Harmonic Disorder"
INDEX 00 03:13:33
FILE "03 Matthew Shipp Trio - Harmonic Disorder.wav" WAVE
INDEX 01 00:00:00
TRACK 04 AUDIO
TITLE "Someday My Prince Will Come"
INDEX 00 05:28:19
FILE "04 Matthew Shipp Trio - Someday My Prince Will Come.wav" WAVE
INDEX 01 00:00:00
TRACK 05 AUDIO
TITLE "Mel Chi 2"
INDEX 00 03:50:55
FILE "05 Matthew Shipp Trio - Mel Chi 2.wav" WAVE
INDEX 01 00:00:00
TRACK 06 AUDIO
TITLE "Mr. Jm"
INDEX 00 01:54:55
FILE "06 Matthew Shipp Trio - Mr. Jm.wav" WAVE
INDEX 01 00:00:00
TRACK 07 AUDIO
TITLE "Mel Chi 1"
INDEX 00 04:31:19
FILE "07 Matthew Shipp Trio - Mel Chi 1.wav" WAVE
INDEX 01 00:00:00
TRACK 08 AUDIO
TITLE "Roe"
INDEX 00 01:46:39
FILE "08 Matthew Shipp Trio - Roe.wav" WAVE
INDEX 01 00:00:00
TRACK 09 AUDIO
TITLE "Orb"
INDEX 00 05:11:15
FILE "09 Matthew Shipp Trio - Orb.wav" WAVE
INDEX 01 00:00:00
TRACK 10 AUDIO
TITLE "Compost"
INDEX 00 03:14:23
FILE "10 Matthew Shipp Trio - Compost.wav" WAVE
INDEX 01 00:00:00
TRACK 11 AUDIO
TITLE "Zo Number 2"
INDEX 00 04:03:52
FILE "11 Matthew Shipp Trio - Zo Number 2.wav" WAVE
INDEX 01 00:00:00
TRACK 12 AUDIO
TITLE "Quantum Waves"
INDEX 00 06:16:17
FILE "12 Matthew Shipp Trio - Quantum Waves.wav" WAVE
INDEX 01 00:00:00
TRACK 13 AUDIO
TITLE "Light"
INDEX 00 04:52:12
FILE "13 Matthew Shipp Trio - Light.wav" WAVE
INDEX 01 00:00:00
TRACK 14 AUDIO
TITLE "When the Curtain Falls on the Jazz Theatre"
INDEX 00 02:59:07
FILE "14 Matthew Shipp Trio - When the Curtain Falls on the Jazz Theatre.wav" WAVE
INDEX 01 00:00:00

Matthew Shipp - Piano
Whit Dickey - Drums
Joe Morris - Bass
Any questions -> support@pro-jazz.com. По всем вопросам пишите -> support@pro-jazz.com
13:54
163
Нет комментариев. Ваш будет первым!