Вы используете незарегистрированную версию компонента "Вкладки"!

Поиск

(Avant-Garde Jazz) Bonefied - Trombone Revenge - 2000, FLAC (image+.cue), lossless

(Avant-Garde Jazz) Bonefied - Trombone Revenge - 2000, FLAC (image+.cue), lossless
Треклист:
Bonefied - Trombone Revenge
Жанр: Avant-Garde Jazz
Год выпуска диска: 2000
Аудио кодек: FLAC
Тип рипа: image+.cue
Битрейт аудио: lossless
Продолжительность: 56:54
Трэклист:
 
скрытый текст
1. Music is Prophecy – 8:19
2. Dave’s Lines – 7:27
3. Primal Slides (The Roswell Incident) – 7:09
4. Azure – 2:09
5. Di Tsung Iz Der Feder Fun Hartz – 12:00
6. White Lines – 1:41
7. Bonefies Live Sampling – 8:20
8. Fluid Mechanics – 6:42
9. In The Still Of The Night – 2:38
Доп. информация:
J A Deane (tenor trombone, bass flute, shakuhachi, percussion),
Steve Feld (trombones, euphonium, sousaphone, text),
Kurt Heyl (tenor trombone, flutes, percussion, voice),
Gary Sherman (trombones, "flugelbone", tuba),
Jefferson Voorhees (drums, percussion),
Mark Weaver (tuba, tenor trombone)
http://zerxpress.blogspot.com/2007/02/review-bonafied-trombone-revenge.html
Рип с оригинального диска из собственной коллекции, сканы прилагаются.
 
Отчёт EAC
Exact Audio Copy V0.99 prebeta 3 from 28. July 2007
Отчёт EAC об извлечении, выполненном 21. августа 2009, 18:49
Bonefied / Trombone Revenge
Дисковод: _NEC DVD_RW ND-3540A Adapter: 3 ID: 1
Режим чтения : Достоверность
Использование точного потока : Да
Отключение кэша аудио : Да
Использование указателей C2 : Нет
Коррекция смещения при чтении : 48
Способность читать области Lead-in и Lead-out : Нет
Заполнение пропущенных сэмплов тишиной : Да
Удаление блоков с тишиной в начале и конце : Нет
При вычислениях CRC использовались нулевые сэмплы : Да
Интерфейс : Установленный внешний ASPI-интерфейс
Выходной формат : Пользовательский кодировщик
Выбранный битрейт : 768 kBit/s
Качество : Высокий
Добавление ID3-тэга : Нет
Утилита сжатия : D:\БЫВШИЙ G\Program Files\Exact Audio Copy\FLAC\FLAC.EXE
Дополнительные параметры : -6 -V -T "ARTIST=%a" -T "TITLE=%t" -T "ALBUM=%g" -T "DATE=%y" -T "TRACKNUMBER=%n" -T "GENRE=%m" -T "COMMENT=%e" %s -o %d
TOC извлечённого CD
Трек | Старт | Длительность | Начальный сектор | Конечный сектор
---------------------------------------------------------------------
1 | 0:00.00 | 8:22.57 | 0 | 37706
2 | 8:22.57 | 7:30.64 | 37707 | 71520
3 | 15:53.46 | 7:13.27 | 71521 | 104022
4 | 23:06.73 | 2:13.09 | 104023 | 114006
5 | 25:20.07 | 12:03.37 | 114007 | 168268
6 | 37:23.44 | 1:44.74 | 168269 | 176142
7 | 39:08.43 | 8:23.45 | 176143 | 213912
8 | 47:32.13 | 6:42.14 | 213913 | 244076
9 | 54:14.27 | 2:38.04 | 244077 | 255930
Характеристики диапазона извлечения и сообщения об ошибках
Выбранный диапазон
Имя файла G:\_НА ОТДАЧУ\Bonefied - Trombone Revenge\Bonefied - Trombone Revenge.wav
Пиковый уровень 98.7 %
Качество диапазона 100.0 %
CRC копии 3FCEA207
Копирование... OK
Ошибок не произошло
Конец отчёта
Any questions -> support@pro-jazz.com. По всем вопросам пишите -> support@pro-jazz.com
13:52
267
Нет комментариев. Ваш будет первым!