Вы используете незарегистрированную версию компонента "Вкладки"!

Поиск

(jazz, avant-garde) Ivo Perelman with Matthew Shipp - Bendito of Santa Cruz [1999], FLAC (tracks+.cue), lossless

(jazz, avant-garde) Ivo Perelman with Matthew Shipp - Bendito of Santa Cruz [1999], FLAC (tracks+.cue), lossless
Треклист:


Ivo Perelman with Matthew Shipp
Bendito of Santa Cruz
Жанр: jazz, avant-garde
Год выпуска: 1999
Формат: FLAC (tracks+.cue)
Битрейт аудио: lossless
Продолжительность
Источник: ed2k
Ivo Perelman: tenor saxophone
Matthew Shipp: piano

tracks

1. Bendito of Santa Cruz (Take 1) (1:42)
2. Macumba (9:26)
3. Angl (7:21)
4. Roses (6:40)
5. Ze Do Vale (5:38)
6. Cego (4:42)
7. Cana Fita (4:14)
8. Bandeirantes (6:01)
9. The Lio (3:07)
10. Bendito of Santa Cruz (Take 2) (1:38)


 
logfile
X Lossless Decoder version 20091108 (112.0)
XLD extraction logfile from 2009-12-22 22:14:34 -0500
Ivo Perelman Matthew Shipp / DNA
Used drive : MATSHITA DVD-R UJ-868 (revision KA14)
Use cdparanoia mode : YES (CDParanoia III 9.8 engine)
Disable audio cache : OK for the drive with cache less than 370KB
Make use of C2 pointers : NO
Read offset correction : 102
Max retry count : 100
TOC of the extracted CD
Track | Start | Length | Start sector | End sector
---------------------------------------------------------
1 | 00:01:00 | 01:42:12 | 75 | 7736
2 | 01:43:12 | 09:26:57 | 7737 | 50243
3 | 11:09:69 | 07:21:66 | 50244 | 83384
4 | 18:31:60 | 06:40:62 | 83385 | 113446
5 | 25:12:47 | 05:38:45 | 113447 | 138841
6 | 30:51:17 | 04:42:67 | 138842 | 160058
7 | 35:34:09 | 04:14:18 | 160059 | 179126
8 | 39:48:27 | 06:01:62 | 179127 | 206263
9 | 45:50:14 | 03:07:36 | 206264 | 220324
10 | 48:57:50 | 01:38:26 | 220325 | 227700
Track 01
Filename : /Users/toydesign/Desktop/whatcd/Matthew Shipp/Ivo Perelman Duo w_ Matthew Shipp/01 Ivo Perelman
View More by this Artist
Ivo Perelman
View More by this Artist
Ivo Perelman with Matthew Shipp - Bendito of Santa Cruz (Take 1).flac
CRC32 hash (test run) : BEBDDC17
CRC32 hash : BEBDDC17
CRC32 hash (skip zero) : 8F3896A6
AccurateRip signature : 42EEC3E3
->Track not present in AccurateRip database.
Statistics
Read error : 0
Skipped (treated as error) : 0
Edge jitter error (maybe fixed) : 0
Atom jitter error (maybe fixed) : 0
Drift error (maybe fixed) : 0
Dropped bytes error (maybe fixed) : 0
Duplicated bytes error (maybe fixed) : 0
Track 02
Filename : /Users/toydesign/Desktop/whatcd/Matthew Shipp/Ivo Perelman Duo w_ Matthew Shipp/02 Ivo Perelman
View More by this Artist
Ivo Perelman
View More by this Artist
Ivo Perelman with Matthew Shipp - Macumba.flac
CRC32 hash (test run) : FC334B8F
CRC32 hash : FC334B8F
CRC32 hash (skip zero) : FD748124
AccurateRip signature : BDBCCE1B
->Track not present in AccurateRip database.
Statistics
Read error : 0
Skipped (treated as error) : 0
Edge jitter error (maybe fixed) : 0
Atom jitter error (maybe fixed) : 0
Drift error (maybe fixed) : 0
Dropped bytes error (maybe fixed) : 0
Duplicated bytes error (maybe fixed) : 0
Track 03
Filename : /Users/toydesign/Desktop/whatcd/Matthew Shipp/Ivo Perelman Duo w_ Matthew Shipp/03 Ivo Perelman
View More by this Artist
Ivo Perelman
View More by this Artist
Ivo Perelman with Matthew Shipp - Anglo.flac
CRC32 hash (test run) : 760694FE
CRC32 hash : 760694FE
CRC32 hash (skip zero) : 3683645D
AccurateRip signature : 033D1B8A
->Track not present in AccurateRip database.
Statistics
Read error : 0
Skipped (treated as error) : 0
Edge jitter error (maybe fixed) : 0
Atom jitter error (maybe fixed) : 0
Drift error (maybe fixed) : 0
Dropped bytes error (maybe fixed) : 0
Duplicated bytes error (maybe fixed) : 0
Track 04
Filename : /Users/toydesign/Desktop/whatcd/Matthew Shipp/Ivo Perelman Duo w_ Matthew Shipp/04 Ivo Perelman
View More by this Artist
Ivo Perelman
View More by this Artist
Ivo Perelman with Matthew Shipp - Roses.flac
CRC32 hash (test run) : 8C7F79F0
CRC32 hash : 8C7F79F0
CRC32 hash (skip zero) : BEA09B33
AccurateRip signature : CDF2CE5D
->Track not present in AccurateRip database.
Statistics
Read error : 0
Skipped (treated as error) : 0
Edge jitter error (maybe fixed) : 0
Atom jitter error (maybe fixed) : 0
Drift error (maybe fixed) : 0
Dropped bytes error (maybe fixed) : 0
Duplicated bytes error (maybe fixed) : 0
Track 05
Filename : /Users/toydesign/Desktop/whatcd/Matthew Shipp/Ivo Perelman Duo w_ Matthew Shipp/05 Ivo Perelman
View More by this Artist
Ivo Perelman
View More by this Artist
Ivo Perelman with Matthew Shipp - Ze Do Vale.flac
CRC32 hash (test run) : 4C8677AB
CRC32 hash : 4C8677AB
CRC32 hash (skip zero) : 1CDC64B9
AccurateRip signature : 4B528088
->Track not present in AccurateRip database.
Statistics
Read error : 0
Skipped (treated as error) : 0
Edge jitter error (maybe fixed) : 0
Atom jitter error (maybe fixed) : 0
Drift error (maybe fixed) : 0
Dropped bytes error (maybe fixed) : 0
Duplicated bytes error (maybe fixed) : 0
Track 06
Filename : /Users/toydesign/Desktop/whatcd/Matthew Shipp/Ivo Perelman Duo w_ Matthew Shipp/06 Ivo Perelman
View More by this Artist
Ivo Perelman
View More by this Artist
Ivo Perelman with Matthew Shipp - Cego.flac
CRC32 hash (test run) : E286F2FC
CRC32 hash : E286F2FC
CRC32 hash (skip zero) : 8389CDD3
AccurateRip signature : F99EC0C6
->Track not present in AccurateRip database.
Statistics
Read error : 0
Skipped (treated as error) : 0
Edge jitter error (maybe fixed) : 0
Atom jitter error (maybe fixed) : 0
Drift error (maybe fixed) : 0
Dropped bytes error (maybe fixed) : 0
Duplicated bytes error (maybe fixed) : 0
Track 07
Filename : /Users/toydesign/Desktop/whatcd/Matthew Shipp/Ivo Perelman Duo w_ Matthew Shipp/07 Ivo Perelman
View More by this Artist
Ivo Perelman
View More by this Artist
Ivo Perelman with Matthew Shipp - Cana Fita.flac
CRC32 hash (test run) : 0711BB44
CRC32 hash : 0711BB44
CRC32 hash (skip zero) : 4C8F0137
AccurateRip signature : 992E1A11
->Track not present in AccurateRip database.
Statistics
Read error : 0
Skipped (treated as error) : 0
Edge jitter error (maybe fixed) : 0
Atom jitter error (maybe fixed) : 0
Drift error (maybe fixed) : 0
Dropped bytes error (maybe fixed) : 0
Duplicated bytes error (maybe fixed) : 0
Track 08
Filename : /Users/toydesign/Desktop/whatcd/Matthew Shipp/Ivo Perelman Duo w_ Matthew Shipp/08 Ivo Perelman
View More by this Artist
Ivo Perelman
View More by this Artist
Ivo Perelman with Matthew Shipp - Bandeirantes.flac
CRC32 hash (test run) : 71ABD043
CRC32 hash : 71ABD043
CRC32 hash (skip zero) : 15AA8E3C
AccurateRip signature : FF3A0BF4
->Track not present in AccurateRip database.
Statistics
Read error : 0
Skipped (treated as error) : 0
Edge jitter error (maybe fixed) : 0
Atom jitter error (maybe fixed) : 0
Drift error (maybe fixed) : 0
Dropped bytes error (maybe fixed) : 0
Duplicated bytes error (maybe fixed) : 0
Track 09
Filename : /Users/toydesign/Desktop/whatcd/Matthew Shipp/Ivo Perelman Duo w_ Matthew Shipp/09 Ivo Perelman
View More by this Artist
Ivo Perelman
View More by this Artist
Ivo Perelman with Matthew Shipp - The Lion.flac
CRC32 hash (test run) : 96031DC5
CRC32 hash : 96031DC5
CRC32 hash (skip zero) : EEAECD15
AccurateRip signature : 57B8BF9F
->Track not present in AccurateRip database.
Statistics
Read error : 0
Skipped (treated as error) : 0
Edge jitter error (maybe fixed) : 0
Atom jitter error (maybe fixed) : 0
Drift error (maybe fixed) : 0
Dropped bytes error (maybe fixed) : 0
Duplicated bytes error (maybe fixed) : 0
Track 10
Filename : /Users/toydesign/Desktop/whatcd/Matthew Shipp/Ivo Perelman Duo w_ Matthew Shipp/10 Ivo Perelman
View More by this Artist
Ivo Perelman
View More by this Artist
Ivo Perelman with Matthew Shipp - Bendito of Santa Cruz (Take 2).flac
CRC32 hash (test run) : AC9B8830
CRC32 hash : AC9B8830
CRC32 hash (skip zero) : 7FFA7538
AccurateRip signature : A42CB285
->Track not present in AccurateRip database.
Statistics
Read error : 0
Skipped (treated as error) : 0
Edge jitter error (maybe fixed) : 0
Atom jitter error (maybe fixed) : 0
Drift error (maybe fixed) : 0
Dropped bytes error (maybe fixed) : 0
Duplicated bytes error (maybe fixed) : 0
No errors occurred
End of status report
 
.cue
REM GENRE Jazz
REM DATE 1996
PERFORMER "__Ivo Perelman with Matthew Shipp"
TITLE "Bendito of Santa Cruz "
FILE "01 - Bendito of Santa Cruz (Take 1).flac" WAVE
TRACK 01 AUDIO
TITLE "Bendito of Santa Cruz (Take 1)"
INDEX 01 00:00:00
FILE "02 - Macumba.flac" WAVE
TRACK 02 AUDIO
TITLE "Macumba"
INDEX 01 00:00:00
FILE "03 - Anglo.flac" WAVE
TRACK 03 AUDIO
TITLE "Anglo"
INDEX 01 00:00:00
FILE "04 - Roses.flac" WAVE
TRACK 04 AUDIO
TITLE "Roses"
INDEX 01 00:00:00
FILE "05 - Ze Do Vale.flac" WAVE
TRACK 05 AUDIO
TITLE "Ze Do Vale"
INDEX 01 00:00:00
FILE "06 - Cego.flac" WAVE
TRACK 06 AUDIO
TITLE "Cego"
INDEX 01 00:00:00
FILE "07 - Cana Fita.flac" WAVE
TRACK 07 AUDIO
TITLE "Cana Fita"
INDEX 01 00:00:00
FILE "08 - Bandeirantes.flac" WAVE
TRACK 08 AUDIO
TITLE "Bandeirantes"
INDEX 01 00:00:00
FILE "09 - The Lion.flac" WAVE
TRACK 09 AUDIO
TITLE "The Lion"
INDEX 01 00:00:00
FILE "10 - Bendito of Santa Cruz (Take 2).flac" WAVE
TRACK 10 AUDIO
TITLE "Bendito of Santa Cruz (Take 2)"
INDEX 01 00:00:00

другие релизы
Any questions -> support@pro-jazz.com. По всем вопросам пишите -> support@pro-jazz.com
18:59
175
Нет комментариев. Ваш будет первым!