Вы используете незарегистрированную версию компонента "Вкладки"!

Поиск

(Avant-Garde, Modern Creative) Tenko - At The Top Of Mt.Brocken - 1992, FLAC (tracks+.cue), lossless

(Avant-Garde, Modern Creative) Tenko - At The Top Of Mt.Brocken - 1992, FLAC (tracks+.cue), lossless
Треклист:
Tenko - At The Top Of Mt.Brocken
Жанр: Avant-Garde, Modern Creative
Год выпуска диска: 1992
Производитель диска: Japan (REC REC MUSIC)
Аудио кодек: FLAC
Тип рипа: tracks+.cue
Битрейт аудио: lossless
Продолжительность: 61:45
Трэклист:
1. Tenko - Blue Heat (4:31)
2. Tenko - Moonlight Waltz (5:09)
3. Tenko - If I... (3:14)
4. Tenko - A Piece of Silence (8:23)
5. Tenko - Dressed in Memories (2:19)
6. Tenko - Bolero Hyperbolic (3:20)
7. Tenko - Dodo (2:56)
8. Tenko - Walter Time (4:07)
9. Tenko - The Sands Just Sigh (1:09)
10. Tenko - Cardiogram (2:12)
11. Tenko - There Play Childrenin The Frowering Medow (2:44)
12. Tenko - Interwoven (4:28)
13. Tenko - Temptation (1:27)
14. Tenko - At The Top of Mt.Brocken (3:05)
15. Tenko - A Crack in A Lie (0:37)
16. Tenko - An Irregular Attack (3:56)
17. Tenko - Drifting (4:47)
18. Tenko - The Last Angel (3:09)
Доп. информация:
TENKO Vocal,Voice,Guitar
ISSOU YUKIHIRO Noh-kan
IMANORI TSUNEO Guitar
SOOWOONG LIM Spring Noise
UMEZU KAZUTOKI Saxophone Clarinet
OKUMA WATARU Piano,Voice,Clarinet
OTOMO YOSHIHIDE Turntables,Guitar,Tape,Voice
KATO HIDEKI Electric Bass,Fretless Bass,Acoustic Bass
KURODA KYOKO Piano
TAKEDA KEN-ICHI Taisho-koto
YOSHIZAWA MOTOHARU Home-made Electric Vertical Bass
YOSHIDA TATSUYA Drums,Voice
 
Отчёт EAC
Exact Audio Copy V0.99 prebeta 5 from 4. May 2009
EAC extraction logfile from 16. February 2010, 12:57
Tenko / At The Top Of Mt.Brocken
Used drive : TSSTcorpCDDVDW SH-S203B Adapter: 5 ID: 0
Read mode : Secure
Utilize accurate stream : Yes
Defeat audio cache : Yes
Make use of C2 pointers : No
Read offset correction : 6
Overread into Lead-In and Lead-Out : No
Fill up missing offset samples with silence : Yes
Delete leading and trailing silent blocks : No
Null samples used in CRC calculations : Yes
Used interface : Native Win32 interface for Win NT & 2000
Gap handling : Appended to previous track
Used output format : User Defined Encoder
Selected bitrate : 768 kBit/s
Quality : High
Add ID3 tag : No
Command line compressor : C:\Program Files\FLAC\flac.exe
Additional command line options : -8 -V -T "ARTIST=%a" -T "TITLE=%t" -T "ALBUM=%g" -T "DATE=%y" -T "TRACKNUMBER=%n" -T "GENRE=%m" -T "COMMENT=EAC FLAC -8" %s
TOC of the extracted CD
Track | Start | Length | Start sector | End sector
---------------------------------------------------------
1 | 0:00.00 | 4:31.46 | 0 | 20370
2 | 4:31.46 | 5:09.32 | 20371 | 43577
3 | 9:41.03 | 3:14.74 | 43578 | 58201
4 | 12:56.02 | 8:23.26 | 58202 | 95952
5 | 21:19.28 | 2:19.41 | 95953 | 106418
6 | 23:38.69 | 3:20.50 | 106419 | 121468
7 | 26:59.44 | 2:56.43 | 121469 | 134711
8 | 29:56.12 | 4:07.56 | 134712 | 153292
9 | 34:03.68 | 1:09.51 | 153293 | 158518
10 | 35:13.44 | 2:12.33 | 158519 | 168451
11 | 37:26.02 | 2:44.61 | 168452 | 180812
12 | 40:10.63 | 4:28.13 | 180813 | 200925
13 | 44:39.01 | 1:27.54 | 200926 | 207504
14 | 46:06.55 | 3:05.48 | 207505 | 221427
15 | 49:12.28 | 0:37.34 | 221428 | 224236
16 | 49:49.62 | 3:56.04 | 224237 | 241940
17 | 53:45.66 | 4:47.11 | 241941 | 263476
18 | 58:33.02 | 3:09.51 | 263477 | 277702
Track 1
Filename C:\Tenko - At The Top Of Mt.Brocken\01. Tenko - Blue Heat.wav
Pre-gap length 0:00:02.00
Peak level 100.0 %
Track quality 99.9 %
Test CRC 40DBD255
Copy CRC 40DBD255
Track not present in AccurateRip database
Copy OK
Track 2
Filename C:\Tenko - At The Top Of Mt.Brocken\02. Tenko - Moonlight Waltz.wav
Pre-gap length 0:00:01.45
Peak level 100.0 %
Track quality 100.0 %
Test CRC 3E883AEF
Copy CRC 3E883AEF
Track not present in AccurateRip database
Copy OK
Track 3
Filename C:\Tenko - At The Top Of Mt.Brocken\03. Tenko - If I....wav
Pre-gap length 0:00:01.45
Peak level 100.0 %
Track quality 100.0 %
Test CRC 0E387701
Copy CRC 0E387701
Track not present in AccurateRip database
Copy OK
Track 4
Filename C:\Tenko - At The Top Of Mt.Brocken\04. Tenko - A Piece of Silence.wav
Pre-gap length 0:00:02.44
Peak level 100.0 %
Track quality 100.0 %
Test CRC C8ED521E
Copy CRC C8ED521E
Track not present in AccurateRip database
Copy OK
Track 5
Filename C:\Tenko - At The Top Of Mt.Brocken\05. Tenko - Dressed in Memories.wav
Pre-gap length 0:00:01.45
Peak level 85.1 %
Track quality 100.0 %
Test CRC E5BDDB16
Copy CRC E5BDDB16
Track not present in AccurateRip database
Copy OK
Track 6
Filename C:\Tenko - At The Top Of Mt.Brocken\06. Tenko - Bolero Hyperbolic.wav
Pre-gap length 0:00:02.45
Peak level 100.0 %
Track quality 100.0 %
Test CRC DE17D70A
Copy CRC DE17D70A
Track not present in AccurateRip database
Copy OK
Track 7
Filename C:\Tenko - At The Top Of Mt.Brocken\07. Tenko - Dodo.wav
Pre-gap length 0:00:02.45
Peak level 98.0 %
Track quality 100.0 %
Test CRC 31A63DB0
Copy CRC 31A63DB0
Track not present in AccurateRip database
Copy OK
Track 8
Filename C:\Tenko - At The Top Of Mt.Brocken\08. Tenko - Walter Time.wav
Pre-gap length 0:00:02.07
Peak level 74.6 %
Track quality 100.0 %
Test CRC C5B591B3
Copy CRC C5B591B3
Track not present in AccurateRip database
Copy OK
Track 9
Filename C:\Tenko - At The Top Of Mt.Brocken\09. Tenko - The Sands Just Sigh.wav
Pre-gap length 0:00:01.45
Peak level 96.1 %
Track quality 100.0 %
Test CRC BC72FF19
Copy CRC BC72FF19
Track not present in AccurateRip database
Copy OK
Track 10
Filename C:\Tenko - At The Top Of Mt.Brocken\10. Tenko - Cardiogram.wav
Pre-gap length 0:00:01.45
Peak level 95.7 %
Track quality 100.0 %
Test CRC 1AE10BAD
Copy CRC 1AE10BAD
Track not present in AccurateRip database
Copy OK
Track 11
Filename C:\Tenko - At The Top Of Mt.Brocken\11. Tenko - There Play Childrenin The Frowering Medow.wav
Pre-gap length 0:00:01.45
Peak level 99.6 %
Track quality 100.0 %
Test CRC 3631DF33
Copy CRC 3631DF33
Track not present in AccurateRip database
Copy OK
Track 12
Filename C:\Tenko - At The Top Of Mt.Brocken\12. Tenko - Interwoven.wav
Pre-gap length 0:00:02.07
Peak level 99.6 %
Track quality 100.0 %
Test CRC 70DC770F
Copy CRC 70DC770F
Track not present in AccurateRip database
Copy OK
Track 13
Filename C:\Tenko - At The Top Of Mt.Brocken\13. Tenko - Temptation.wav
Pre-gap length 0:00:02.07
Peak level 99.6 %
Track quality 100.0 %
Test CRC 01F8D117
Copy CRC 01F8D117
Track not present in AccurateRip database
Copy OK
Track 14
Filename C:\Tenko - At The Top Of Mt.Brocken\14. Tenko - At The Top of Mt.Brocken.wav
Pre-gap length 0:00:01.45
Peak level 99.6 %
Track quality 99.9 %
Test CRC B85DACF2
Copy CRC B85DACF2
Track not present in AccurateRip database
Copy OK
Track 15
Filename C:\Tenko - At The Top Of Mt.Brocken\15. Tenko - A Crack in A Lie.wav
Pre-gap length 0:00:01.45
Peak level 99.6 %
Track quality 100.0 %
Test CRC C8FE0C2B
Copy CRC C8FE0C2B
Track not present in AccurateRip database
Copy OK
Track 16
Filename C:\Tenko - At The Top Of Mt.Brocken\16. Tenko - An Irregular Attack.wav
Pre-gap length 0:00:02.07
Peak level 100.0 %
Track quality 100.0 %
Test CRC BEAC6298
Copy CRC BEAC6298
Track not present in AccurateRip database
Copy OK
Track 17
Filename C:\Tenko - At The Top Of Mt.Brocken\17. Tenko - Drifting.wav
Pre-gap length 0:00:02.07
Peak level 79.0 %
Track quality 100.0 %
Test CRC F11EFDD2
Copy CRC F11EFDD2
Track not present in AccurateRip database
Copy OK
Track 18
Filename C:\Tenko - At The Top Of Mt.Brocken\18. Tenko - The Last Angel.wav
Pre-gap length 0:00:02.07
Peak level 86.7 %
Track quality 100.0 %
Test CRC EA020335
Copy CRC EA020335
Track not present in AccurateRip database
Copy OK
None of the tracks are present in the AccurateRip database
No errors occurred
End of status report
 
CUE
REM GENRE Avantgarde
REM DATE 1992
REM DISCID 050E7612
REM COMMENT "ExactAudioCopy v0.99pb5"
PERFORMER "Tenko"
TITLE "At The Top Of Mt.Brocken"
FILE "01. Tenko - Blue Heat.wav" WAVE
TRACK 01 AUDIO
TITLE "Blue Heat"
PERFORMER "Tenko"
FLAGS DCP
INDEX 01 00:00:00
TRACK 02 AUDIO
TITLE "Moonlight Waltz"
PERFORMER "Tenko"
FLAGS DCP
INDEX 00 04:30:01
FILE "02. Tenko - Moonlight Waltz.wav" WAVE
INDEX 01 00:00:00
TRACK 03 AUDIO
TITLE "If I..."
PERFORMER "Tenko"
FLAGS DCP
INDEX 00 05:07:62
FILE "03. Tenko - If I....wav" WAVE
INDEX 01 00:00:00
TRACK 04 AUDIO
TITLE "A Piece of Silence"
PERFORMER "Tenko"
FLAGS DCP
INDEX 00 03:12:30
FILE "04. Tenko - A Piece of Silence.wav" WAVE
INDEX 01 00:00:00
TRACK 05 AUDIO
TITLE "Dressed in Memories"
PERFORMER "Tenko"
FLAGS DCP
INDEX 00 08:21:56
FILE "05. Tenko - Dressed in Memories.wav" WAVE
INDEX 01 00:00:00
TRACK 06 AUDIO
TITLE "Bolero Hyperbolic"
PERFORMER "Tenko"
FLAGS DCP
INDEX 00 02:16:71
FILE "06. Tenko - Bolero Hyperbolic.wav" WAVE
INDEX 01 00:00:00
TRACK 07 AUDIO
TITLE "Dodo"
PERFORMER "Tenko"
FLAGS DCP
INDEX 00 03:18:05
FILE "07. Tenko - Dodo.wav" WAVE
INDEX 01 00:00:00
TRACK 08 AUDIO
TITLE "Walter Time"
PERFORMER "Tenko"
FLAGS DCP
INDEX 00 02:54:36
FILE "08. Tenko - Walter Time.wav" WAVE
INDEX 01 00:00:00
TRACK 09 AUDIO
TITLE "The Sands Just Sigh"
PERFORMER "Tenko"
FLAGS DCP
INDEX 00 04:06:11
FILE "09. Tenko - The Sands Just Sigh.wav" WAVE
INDEX 01 00:00:00
TRACK 10 AUDIO
TITLE "Cardiogram"
PERFORMER "Tenko"
FLAGS DCP
INDEX 00 01:08:06
FILE "10. Tenko - Cardiogram.wav" WAVE
INDEX 01 00:00:00
TRACK 11 AUDIO
TITLE "There Play Childrenin The Frowering Medow"
PERFORMER "Tenko"
FLAGS DCP
INDEX 00 02:10:63
FILE "11. Tenko - There Play Childrenin The Frowering Medow.wav" WAVE
INDEX 01 00:00:00
TRACK 12 AUDIO
TITLE "Interwoven"
PERFORMER "Tenko"
FLAGS DCP
INDEX 00 02:42:54
FILE "12. Tenko - Interwoven.wav" WAVE
INDEX 01 00:00:00
TRACK 13 AUDIO
TITLE "Temptation"
PERFORMER "Tenko"
FLAGS DCP
INDEX 00 04:26:06
FILE "13. Tenko - Temptation.wav" WAVE
INDEX 01 00:00:00
TRACK 14 AUDIO
TITLE "At The Top of Mt.Brocken"
PERFORMER "Tenko"
FLAGS DCP
INDEX 00 01:26:09
FILE "14. Tenko - At The Top of Mt.Brocken.wav" WAVE
INDEX 01 00:00:00
TRACK 15 AUDIO
TITLE "A Crack in A Lie"
PERFORMER "Tenko"
FLAGS DCP
INDEX 00 03:04:03
FILE "15. Tenko - A Crack in A Lie.wav" WAVE
INDEX 01 00:00:00
TRACK 16 AUDIO
TITLE "An Irregular Attack"
PERFORMER "Tenko"
FLAGS DCP
INDEX 00 00:35:27
FILE "16. Tenko - An Irregular Attack.wav" WAVE
INDEX 01 00:00:00
TRACK 17 AUDIO
TITLE "Drifting"
PERFORMER "Tenko"
FLAGS DCP
INDEX 00 03:53:72
FILE "17. Tenko - Drifting.wav" WAVE
INDEX 01 00:00:00
TRACK 18 AUDIO
TITLE "The Last Angel"
PERFORMER "Tenko"
FLAGS DCP
INDEX 00 04:45:04
FILE "18. Tenko - The Last Angel.wav" WAVE
INDEX 01 00:00:00
По всем вопросам пишите личное сообщение пользователю M0p94ok.
19:00
181
Нет комментариев. Ваш будет первым!