Поиск

(Jazz, Avant-Garde, Free Funk) Phalanx (James Blood Ulmer, George Adams, Sirone, Rashied Ali) - Original Phalanx - 1987, FLAC (image+.cue), lossless

(Jazz, Avant-Garde, Free Funk) Phalanx (James Blood Ulmer, George Adams, Sirone, Rashied Ali) - Original Phalanx - 1987, FLAC (image+.cue), lossless
Треклист:
Phalanx (James Blood Ulmer, George Adams, Sirone, Rashied Ali) - Original Phalanx
Жанр: Jazz, Avant-Garde, Free Funk
Год выпуска диска: 1987
Производитель диска: DIW 32DIW801CD
Аудио кодек: FLAC
Тип рипа: image+.cue
Битрейт аудио: lossless
Продолжительность: 55:34
Ripper: desertrat aka wustenratte
Трэклист:
1. Song Number One
2. Free Spirit
3. House on 13th Street
4. Troublemaker
5. Angel Love
6. A Smile
7. Playground
George Adams: tenor saxophone, flute
James "Blood" Ulmer: guitar
Sirone: bass
Rashied Ali: Drums
 
EAC extraction logfile
Exact Audio Copy V0.99 prebeta 4 from 23. January 2008
EAC extraction logfile from 14. February 2010, 8:18
Phalanx / Original Phalanx
Used drive : Optiarc DVD RW AD-7560A Adapter: 0 ID: 0
Read mode : Secure
Utilize accurate stream : Yes
Defeat audio cache : Yes
Make use of C2 pointers : No
Read offset correction : 6
Overread into Lead-In and Lead-Out : No
Fill up missing offset samples with silence : Yes
Delete leading and trailing silent blocks : No
Null samples used in CRC calculations : Yes
Used interface : Native Win32 interface for Win NT & 2000
Used output format : Internal WAV Routines
Sample format : 44.100 Hz; 16 Bit; Stereo
TOC of the extracted CD
Track | Start | Length | Start sector | End sector
---------------------------------------------------------
1 | 0:00.00 | 7:34.12 | 0 | 34061
2 | 7:34.12 | 7:16.00 | 34062 | 66761
3 | 14:50.12 | 6:15.45 | 66762 | 94931
4 | 21:05.57 | 8:13.70 | 94932 | 131976
5 | 29:19.52 | 9:02.35 | 131977 | 172661
6 | 38:22.12 | 6:04.00 | 172662 | 199961
7 | 44:26.12 | 11:07.63 | 199962 | 250049
Range status and errors
Selected range
Filename C:\DESERTRAT EAC RIPs\10 PHALANX - ORIGINAL PHALANX (1987)\Phalanx - Original Phalanx.wav
Peak level 100.0 %
Range quality 100.0 %
Copy CRC C552A407
Copy OK
No errors occurred
AccurateRip summary
Track 1 not present in database
Track 2 not present in database
Track 3 not present in database
Track 4 not present in database
Track 5 not present in database
Track 6 not present in database
Track 7 not present in database
None of the tracks are present in the AccurateRip database
End of status report
По всем вопросам пишите личное сообщение пользователю M0p94ok.
17:58
418
Нет комментариев. Ваш будет первым!