Вы используете незарегистрированную версию компонента "Вкладки"!

Поиск

(Jazz, Avant-Garde, Free Improvisation) Gunter Lenz Springtime - Majorleague - 1991, FLAC (tracks+.cue), lossless

(Jazz, Avant-Garde, Free Improvisation) Gunter Lenz Springtime - Majorleague - 1991, FLAC (tracks+.cue), lossless
Треклист:
Gunter Lenz Springtime / Majorleague
Жанр: Jazz, Avant-Garde, Free Improvisation
Страна-производитель диска: Germany (for original cd)
Год издания: 1991
Издатель (лейбл): L+R Records
Номер по каталогу: CDLR 45063
Страна: Germany
Аудиокодек: FLAC (*.flac)
Тип рипа: tracks+.cue
Битрейт аудио: lossless
Источник (релизер): CD-R
Наличие сканов в содержимом раздачи: нет
Треклист:
1 Majorleague 4:58
2 Got No Time 4:39
3 Bluesarna 7:51
4 Floating Open Time 4:24
5 Der Standpunkt Im Schnittpunkt 4:01
6 Subtone Bells 3:32
7 Heavy Petal 4:28
8 Sphings 8:27
9 Back To The Earth 4:32
10 Im Tschad 10:20
 
Лог создания рипа
Exact Audio Copy V1.0 beta 3 from 29. August 2011
Отчёт EAC об извлечении, выполненном 24. сентября 2013, 23:28
Günter Lenz' Springtime / Majorleague
Дисковод: SlimtypeDVD A DS8A8SH Adapter: 0 ID: 0
Режим чтения : Достоверность
Использование точного потока : Да
Отключение кэша аудио : Да
Использование указателей C2 : Нет
Коррекция смещения при чтении : 6
Способность читать области Lead-in и Lead-out : Нет
Заполнение пропущенных сэмплов тишиной : Да
Удаление блоков с тишиной в начале и конце : Нет
При вычислениях CRC использовались нулевые сэмплы : Да
Интерфейс : Встроенный Win32-интерфейс для Win NT/2000
Обработка зазоров : Не обнаружено, добавлено к предыдущему треку
Выходной формат : Внутренние WAV-операции
Формат сэмплов : 44.100 Гц; 16 бит; стерео
TOC извлечённого CD
Трек | Старт | Длительность | Начальный сектор | Конечный сектор
---------------------------------------------------------------------
1 | 0:00.00 | 4:58.25 | 0 | 22374
2 | 4:58.25 | 4:39.50 | 22375 | 43349
3 | 9:38.00 | 7:51.25 | 43350 | 78699
4 | 17:29.25 | 4:24.50 | 78700 | 98549
5 | 21:54.00 | 4:01.02 | 98550 | 116626
6 | 25:55.02 | 3:32.73 | 116627 | 132599
7 | 29:28.00 | 4:28.00 | 132600 | 152699
8 | 33:56.00 | 8:27.00 | 152700 | 190724
9 | 42:23.00 | 4:32.50 | 190725 | 211174
10 | 46:55.50 | 10:21.15 | 211175 | 257764
Трек 1
Имя файла D:\WAV\01 Günter Lenz' Springtime - Majorleague.wav
Пиковый уровень 95.7 %
Скорость извлечения 2.9 X
Качество трека 100.0 %
CRC копии 0AF62D7F
Точность не определена (достоверность 2) [DE8979D1], AccurateRip вернул [51CF3BE9] (AR v2)
Копирование... OK
Трек 2
Имя файла D:\WAV\02 Günter Lenz' Springtime - Got No Time.wav
Пиковый уровень 96.5 %
Скорость извлечения 3.4 X
Качество трека 100.0 %
CRC копии 9ED78738
Точность не определена (достоверность 2) [0F4F8D12], AccurateRip вернул [FDB82530] (AR v2)
Копирование... OK
Трек 3
Имя файла D:\WAV\03 Günter Lenz' Springtime - Bluesarna.wav
Пиковый уровень 89.6 %
Скорость извлечения 3.9 X
Качество трека 100.0 %
CRC копии 66DC87EF
Точность не определена (достоверность 2) [3A4B5DD8], AccurateRip вернул [FA4A5089] (AR v2)
Копирование... OK
Трек 4
Имя файла D:\WAV\04 Günter Lenz' Springtime - Floating Open Times.wav
Пиковый уровень 93.6 %
Скорость извлечения 4.1 X
Качество трека 100.0 %
CRC копии 6397A7C9
Точность не определена (достоверность 2) [A2D55087], AccurateRip вернул [EFA89ED6] (AR v2)
Копирование... OK
Трек 5
Имя файла D:\WAV\05 Günter Lenz' Springtime - Der Standpunkt im Schnittpunkt.wav
Пиковый уровень 96.0 %
Скорость извлечения 3.6 X
Качество трека 99.9 %
CRC копии 5E547967
Точность не определена (достоверность 2) [E78D18A2], AccurateRip вернул [D998274C] (AR v2)
Копирование... OK
Трек 6
Имя файла D:\WAV\06 Günter Lenz' Springtime - Subtone Bells.wav
Пиковый уровень 72.5 %
Скорость извлечения 4.3 X
Качество трека 100.0 %
CRC копии B7511349
Точность не определена (достоверность 2) [C34911C2], AccurateRip вернул [F4BE6DF8] (AR v2)
Копирование... OK
Трек 7
Имя файла D:\WAV\07 Günter Lenz' Springtime - Heavy Petal.wav
Пиковый уровень 96.3 %
Скорость извлечения 4.7 X
Качество трека 100.0 %
CRC копии 03B4C3C4
Точность не определена (достоверность 2) [2CB71D2E], AccurateRip вернул [3DFEC85B] (AR v2)
Копирование... OK
Трек 8
Имя файла D:\WAV\08 Günter Lenz' Springtime - Sphings.wav
Пиковый уровень 96.9 %
Скорость извлечения 5.2 X
Качество трека 100.0 %
CRC копии 84492DDA
Точность не определена (достоверность 2) [B742F0B8], AccurateRip вернул [BC3B3857] (AR v2)
Копирование... OK
Трек 9
Имя файла D:\WAV\09 Günter Lenz' Springtime - Back To The Earth.wav
Пиковый уровень 97.7 %
Скорость извлечения 5.2 X
Качество трека 100.0 %
CRC копии 3C6941D1
Точность не определена (достоверность 2) [E2FB8B00], AccurateRip вернул [DCAA655C] (AR v2)
Копирование... OK
Трек 10
Имя файла D:\WAV\10 Günter Lenz' Springtime - Im Tschad.wav
Пиковый уровень 95.8 %
Скорость извлечения 5.5 X
Качество трека 99.9 %
CRC копии 0B56D29A
Точность не определена (достоверность 2) [13BFEBE4], AccurateRip вернул [BE7133BB] (AR v2)
Копирование... OK
Ни один трек не прошёл проверки на точность
В вашей базе может быть иной вариант штамповки диска
Ошибок не произошло
Конец отчёта
 
Содержание индексной карты (.CUE)
REM GENRE Jazz
REM DATE 1991
REM DISCID 740D6C0A
REM COMMENT "ExactAudioCopy v1.0b3"
PERFORMER "Gunter Lenz' Springtime"
TITLE "Majorleague"
FILE "01 Gunter Lenz' Springtime - Majorleague.wav" WAVE
TRACK 01 AUDIO
TITLE "Majorleague"
PERFORMER "Gunter Lenz' Springtime"
INDEX 01 00:00:00
FILE "02 Gunter Lenz' Springtime - Got No Time.wav" WAVE
TRACK 02 AUDIO
TITLE "Got No Time"
PERFORMER "Gunter Lenz' Springtime"
INDEX 01 00:00:00
FILE "03 Gunter Lenz' Springtime - Bluesarna.wav" WAVE
TRACK 03 AUDIO
TITLE "Bluesarna"
PERFORMER "Gunter Lenz' Springtime"
INDEX 01 00:00:00
FILE "04 Gunter Lenz' Springtime - Floating Open Times.wav" WAVE
TRACK 04 AUDIO
TITLE "Floating Open Times"
PERFORMER "Gunter Lenz' Springtime"
INDEX 01 00:00:00
FILE "05 Gunter Lenz' Springtime - Der Standpunkt im Schnittpunkt.wav" WAVE
TRACK 05 AUDIO
TITLE "Der Standpunkt im Schnittpunkt"
PERFORMER "Gunter Lenz' Springtime"
INDEX 01 00:00:00
FILE "06 Gunter Lenz' Springtime - Subtone Bells.wav" WAVE
TRACK 06 AUDIO
TITLE "Subtone Bells"
PERFORMER "Gunter Lenz' Springtime"
INDEX 01 00:00:00
FILE "07 Gunter Lenz' Springtime - Heavy Petal.wav" WAVE
TRACK 07 AUDIO
TITLE "Heavy Petal"
PERFORMER "Gunter Lenz' Springtime"
INDEX 01 00:00:00
FILE "08 Gunter Lenz' Springtime - Sphings.wav" WAVE
TRACK 08 AUDIO
TITLE "Sphings"
PERFORMER "Gunter Lenz' Springtime"
INDEX 01 00:00:00
FILE "09 Gunter Lenz' Springtime - Back To The Earth.wav" WAVE
TRACK 09 AUDIO
TITLE "Back To The Earth"
PERFORMER "Gunter Lenz' Springtime"
INDEX 01 00:00:00
FILE "10 Gunter Lenz' Springtime - Im Tschad.wav" WAVE
TRACK 10 AUDIO
TITLE "Im Tschad"
PERFORMER "Gunter Lenz' Springtime"
INDEX 01 00:00:00
 
Состав
Alto Saxophone, Flute – E.L. Petrowsky*
Bass – Günter Lenz
Drums – Thomas Cremer
Piano – Bob Degen
Soprano Saxophone, Tenor Saxophone, Bass Clarinet, Flute [Alto] – Gebhard Ullmann
Trumpet, Flugelhorn – Claus Stötter
Any questions -> support@pro-jazz.com. По всем вопросам пишите -> support@pro-jazz.com
18:28
181
Нет комментариев. Ваш будет первым!