Вы используете незарегистрированную версию компонента "Вкладки"!

Поиск

(Contemporary Jazz, Altri Suoni) Cholet Känzig (Kanzig) Papaux Trio - Under the Whale - 2005, FLAC (tracks+.cue), lossless

(Contemporary Jazz, Altri Suoni) Cholet Känzig (Kanzig) Papaux Trio - Under the Whale - 2005, FLAC (tracks+.cue), lossless
Треклист:
Cholet Känzig Papaux Trio / Under the Whale
Жанр: Contemporary Jazz, Altri Suoni
Страна-производитель диска: Switzerland
Год издания: 2005
Издатель (лейбл): Altri Suoni
Номер по каталогу: AS 189
Аудиокодек: FLAC (*.flac)
Тип рипа: tracks+.cue
Битрейт аудио: lossless
Продолжительность: 54:56
Источник (релизер): Max Monteiro
Наличие сканов в содержимом раздачи: нет
Треклист:
01. Two Zebra from the Lake 6:16
02. M. Gabriel 5:06
03. Lovely Train 6:03
04. Like a Gospel 5:26
05. Typical Combination 3:44
06. In the Papaumobil 3:09
07. Blandine from Lyon 5:07
08. Under the Whale 6:39
09. Ce qui reste le soir 4:59
10. Lituania 5:25
11. Like a Gospel (take 2) 3:02
All compositions by Jean-Christophe Cholet except 5, 7: Cholet-Känzig-Papaux.
Recorded at Studio La Buissonne (Pernes-les-Fontaines – France) on the 2nd and 3rd of April 2005.
Jean-Christophe Cholet – Piano
Heiri Känzig – Double Bass
Marcel Papaux – Drums
 
Лог создания рипа
Exact Audio Copy V1.0 beta 3 from 29. August 2011
EAC extraction logfile from 22. September 2013, 10:34
Cholet Känzig Papaux Trio / Under the Whale
Used drive : SlimtypeeNAU508 5 Adapter: 1 ID: 0
Read mode : Secure
Utilize accurate stream : Yes
Defeat audio cache : Yes
Make use of C2 pointers : No
Read offset correction : 6
Overread into Lead-In and Lead-Out : No
Fill up missing offset samples with silence : Yes
Delete leading and trailing silent blocks : No
Null samples used in CRC calculations : Yes
Used interface : Native Win32 interface for Win NT & 2000
Gap handling : Appended to previous track
Used output format : User Defined Encoder
Selected bitrate : 768 kBit/s
Quality : High
Add ID3 tag : No
Command line compressor : C:\Program Files (x86)\Exact Audio Copy\Flac\flac.exe
Additional command line options : -8 -V -T "ARTIST=%artist%" -T "TITLE=%title%" -T "ALBUM=%albumtitle%" -T "DATE=%year%" -T "TRACKNUMBER=%tracknr%" -T "GENRE=%genre%" -T "PERFORMER=%albuminterpret%" -T "COMPOSER=%composer%" %haslyrics%--tag-from-file=LYRICS="%lyricsfile%"%haslyrics% -T "ALBUMARTIST=%albumartist%" -T "DISCNUMBER=%cdnumber%" -T "TOTALDISCS=%totalcds%" -T "TOTALTRACKS=%numtracks%" -T "COMMENT=%comment%" %source% -o %dest%
TOC of the extracted CD
Track | Start | Length | Start sector | End sector
---------------------------------------------------------
1 | 0:00.00 | 6:15.51 | 0 | 28175
2 | 6:15.51 | 5:06.26 | 28176 | 51151
3 | 11:22.02 | 6:03.08 | 51152 | 78384
4 | 17:25.10 | 5:25.70 | 78385 | 102829
5 | 22:51.05 | 3:43.49 | 102830 | 119603
6 | 26:34.54 | 3:09.28 | 119604 | 133806
7 | 29:44.07 | 5:06.53 | 133807 | 156809
8 | 34:50.60 | 6:38.53 | 156810 | 186712
9 | 41:29.38 | 4:59.08 | 186713 | 209145
10 | 46:28.46 | 5:25.24 | 209146 | 233544
11 | 51:53.70 | 3:02.35 | 233545 | 247229
Track 1
Filename C:\EAC rips\01 - Two Zebra from the Lake.wav
Pre-gap length 0:00:02.00
Peak level 97.5 %
Extraction speed 2.4 X
Track quality 100.0 %
Test CRC 6769ADF8
Copy CRC 6769ADF8
Track not present in AccurateRip database
Copy OK
Track 2
Filename C:\EAC rips\02 - M. Gabriel.wav
Peak level 97.3 %
Extraction speed 2.7 X
Track quality 100.0 %
Test CRC 15A640EF
Copy CRC 15A640EF
Track not present in AccurateRip database
Copy OK
Track 3
Filename C:\EAC rips\03 - Lovely Train.wav
Peak level 97.3 %
Extraction speed 3.0 X
Track quality 100.0 %
Test CRC 54544282
Copy CRC 54544282
Track not present in AccurateRip database
Copy OK
Track 4
Filename C:\EAC rips\04 - Like a Gospel.wav
Peak level 97.4 %
Extraction speed 3.2 X
Track quality 100.0 %
Test CRC 50F0542D
Copy CRC 50F0542D
Track not present in AccurateRip database
Copy OK
Track 5
Filename C:\EAC rips\05 - Typical Combination.wav
Peak level 97.2 %
Extraction speed 3.3 X
Track quality 100.0 %
Test CRC 5C26A190
Copy CRC 5C26A190
Track not present in AccurateRip database
Copy OK
Track 6
Filename C:\EAC rips\06 - In the Papaumobil.wav
Peak level 97.4 %
Extraction speed 3.3 X
Track quality 100.0 %
Test CRC 7ED0D984
Copy CRC 7ED0D984
Track not present in AccurateRip database
Copy OK
Track 7
Filename C:\EAC rips\07 - Blandine from Lyon.wav
Peak level 97.2 %
Extraction speed 3.7 X
Track quality 100.0 %
Test CRC 594696FE
Copy CRC 594696FE
Track not present in AccurateRip database
Copy OK
Track 8
Filename C:\EAC rips\08 - Under the Whale.wav
Peak level 97.4 %
Extraction speed 3.5 X
Track quality 99.9 %
Test CRC 4880754E
Copy CRC 4880754E
Track not present in AccurateRip database
Copy OK
Track 9
Filename C:\EAC rips\09 - Ce qui reste le soir.wav
Peak level 97.0 %
Extraction speed 3.4 X
Track quality 99.9 %
Test CRC 299C85A7
Copy CRC 299C85A7
Track not present in AccurateRip database
Copy OK
Track 10
Filename C:\EAC rips\10 - Lituania.wav
Peak level 97.5 %
Extraction speed 4.3 X
Track quality 100.0 %
Test CRC 473010C8
Copy CRC 473010C8
Track not present in AccurateRip database
Copy OK
Track 11
Filename C:\EAC rips\11 - Like a Gospel (take 2).wav
Peak level 96.8 %
Extraction speed 4.1 X
Track quality 100.0 %
Test CRC 6A098CCD
Copy CRC 6A098CCD
Track not present in AccurateRip database
Copy OK
None of the tracks are present in the AccurateRip database
No errors occurred
End of status report
---- CUETools DB Plugin V2.1.4
[CTDB TOCID: QrfG66Oyac5n6VaiDgFgx..dQOM-] found
Submit result: QrfG66Oyac5n6VaiDgFgx..dQOM- has been confirmed
Track | CTDB Status
1 | (1/1) Accurately ripped
2 | (1/1) Accurately ripped
3 | (1/1) Accurately ripped
4 | (1/1) Accurately ripped
5 | (1/1) Accurately ripped
6 | (1/1) Accurately ripped
7 | (1/1) Accurately ripped
8 | (1/1) Accurately ripped
9 | (1/1) Accurately ripped
10 | (1/1) Accurately ripped
11 | (1/1) Accurately ripped
==== Log checksum AF3C1A752C1F7DF6F75B93ABB20B4E22ABFCCF54F4350535DC6B14F5664F3A59 ====
 
Содержание индексной карты (.CUE)
REM GENRE Jazz
REM DATE 2005
REM DISCID A30CE00B
REM COMMENT "ExactAudioCopy v1.0b3"
PERFORMER "Cholet Känzig Papaux Trio"
TITLE "Under the Whale"
FILE "01 - Two Zebra from the Lake.wav" WAVE
TRACK 01 AUDIO
TITLE "Two Zebra from the Lake"
PERFORMER "Cholet Känzig Papaux Trio"
ISRC CH1880518901
INDEX 01 00:00:00
FILE "02 - M. Gabriel.wav" WAVE
TRACK 02 AUDIO
TITLE "M. Gabriel"
PERFORMER "Cholet Känzig Papaux Trio"
ISRC CH1880518902
INDEX 01 00:00:00
FILE "03 - Lovely Train.wav" WAVE
TRACK 03 AUDIO
TITLE "Lovely Train"
PERFORMER "Cholet Känzig Papaux Trio"
ISRC CH1880518903
INDEX 01 00:00:00
FILE "04 - Like a Gospel.wav" WAVE
TRACK 04 AUDIO
TITLE "Like a Gospel"
PERFORMER "Cholet Känzig Papaux Trio"
ISRC CH1880518904
INDEX 01 00:00:00
FILE "05 - Typical Combination.wav" WAVE
TRACK 05 AUDIO
TITLE "Typical Combination"
PERFORMER "Cholet Känzig Papaux Trio"
ISRC CH1880518905
INDEX 01 00:00:00
FILE "06 - In the Papaumobil.wav" WAVE
TRACK 06 AUDIO
TITLE "In the Papaumobil"
PERFORMER "Cholet Känzig Papaux Trio"
ISRC CH1880518906
INDEX 01 00:00:00
FILE "07 - Blandine from Lyon.wav" WAVE
TRACK 07 AUDIO
TITLE "Blandine from Lyon"
PERFORMER "Cholet Känzig Papaux Trio"
ISRC CH1880518907
INDEX 01 00:00:00
FILE "08 - Under the Whale.wav" WAVE
TRACK 08 AUDIO
TITLE "Under the Whale"
PERFORMER "Cholet Känzig Papaux Trio"
ISRC CH1880518908
INDEX 01 00:00:00
FILE "09 - Ce qui reste le soir.wav" WAVE
TRACK 09 AUDIO
TITLE "Ce qui reste le soir"
PERFORMER "Cholet Känzig Papaux Trio"
ISRC CH1880518909
INDEX 01 00:00:00
FILE "10 - Lituania.wav" WAVE
TRACK 10 AUDIO
TITLE "Lituania"
PERFORMER "Cholet Känzig Papaux Trio"
ISRC CH1880518910
INDEX 01 00:00:00
FILE "11 - Like a Gospel (take 2).wav" WAVE
TRACK 11 AUDIO
TITLE "Like a Gospel (take 2)"
PERFORMER "Cholet Känzig Papaux Trio"
ISRC CH1880518911
INDEX 01 00:00:00
Any questions -> support@pro-jazz.com. По всем вопросам пишите -> support@pro-jazz.com
18:28
179
Нет комментариев. Ваш будет первым!