Вы используете незарегистрированную версию компонента "Вкладки"!

Поиск

(free jazz, avant-garde) Francois Carrier, Michel Lambert - Shores and Ditches (2012), FLAC (tracks+.cue), lossless

(free jazz, avant-garde) Francois Carrier, Michel Lambert - Shores and Ditches (2012), FLAC (tracks+.cue), lossless
Треклист:


Francois Carrier, Michel Lambert - Shores and Ditches (2012)

Жанр: free jazz, avant-garde
Год выпуска: 2012
Издатель (лейбл):FMR / 340-0512
Формат: FLAC (tracks+.cue)
Битрейт аудио: lossless
Продолжительность 56`06
Источник: what.cd, cifelius
François Carrier: alto saxophone
Michel Lambert: drums
Daniel Thompson: guitar
Neil Metcalfe: flute
Guillaume Viltard: double bass

tracks

Caldera
Upstream
Lava
Reef
Wadi
Shores and Ditches


 
.log
Exact Audio Copy V1.0 beta 2 from 29. April 2011
EAC extraction logfile from 19. January 2013, 15:39
Francois Carrier, MIchel Lambert / Shores and Ditches
Used drive : HL-DT-STDVDRAM GSA-T50N Adapter: 0 ID: 1
Read mode : Secure
Utilize accurate stream : Yes
Defeat audio cache : Yes
Make use of C2 pointers : No
Read offset correction : 667
Overread into Lead-In and Lead-Out : No
Fill up missing offset samples with silence : Yes
Delete leading and trailing silent blocks : No
Null samples used in CRC calculations : Yes
Used interface : Native Win32 interface for Win NT & 2000
Gap handling : Appended to previous track
Used output format : User Defined Encoder
Selected bitrate : 768 kBit/s
Quality : High
Add ID3 tag : No
Command line compressor : D:\Programmi\Exact Audio Copy\FLAC\FLAC.EXE
Additional command line options : -8 -V -T "ARTIST=%artist%" -T "TITLE=%title%" -T "ALBUM=%albumtitle%" -T "DATE=%year%" -T "TRACKNUMBER=%tracknr%" -T "TOTALTRACKS=%numtracks%" -T "GENRE=%genre%" -T "ALBUMARTIST=%albumartist%" -T "ALBUM ARTIST=%albumartist%
TOC of the extracted CD
Track | Start | Length | Start sector | End sector
---------------------------------------------------------
1 | 0:00.00 | 7:26.69 | 0 | 33518
2 | 7:26.69 | 18:58.46 | 33519 | 118914
3 | 26:25.40 | 4:31.57 | 118915 | 139296
4 | 30:57.22 | 4:08.47 | 139297 | 157943
5 | 35:05.69 | 13:48.49 | 157944 | 220092
6 | 48:54.43 | 7:11.35 | 220093 | 252452
Track 1
Filename C:\Documents and Settings\user\Desktop\Francois Carrier, Michel Lambert - Shores and Ditches (2012) [FLAC] {FMR Rec}\01 - Caldera.wav
Pre-gap length 0:00:02.00
Peak level 96.6 %
Extraction speed 2.7 X
Track quality 100.0 %
Test CRC 841DD9B3
Copy CRC 841DD9B3
Track not present in AccurateRip database
Copy OK
Track 2
Filename C:\Documents and Settings\user\Desktop\Francois Carrier, Michel Lambert - Shores and Ditches (2012) [FLAC] {FMR Rec}\02 - Upstream.wav
Pre-gap length 0:00:03.74
Peak level 96.6 %
Extraction speed 3.7 X
Track quality 100.0 %
Test CRC A6A9FC6B
Copy CRC A6A9FC6B
Track not present in AccurateRip database
Copy OK
Track 3
Filename C:\Documents and Settings\user\Desktop\Francois Carrier, Michel Lambert - Shores and Ditches (2012) [FLAC] {FMR Rec}\03 - Lava.wav
Pre-gap length 0:00:03.74
Peak level 96.6 %
Extraction speed 3.9 X
Track quality 100.0 %
Test CRC 7EA7CEF3
Copy CRC 7EA7CEF3
Track not present in AccurateRip database
Copy OK
Track 4
Filename C:\Documents and Settings\user\Desktop\Francois Carrier, Michel Lambert - Shores and Ditches (2012) [FLAC] {FMR Rec}\04 - Reef.wav
Pre-gap length 0:00:03.74
Peak level 96.6 %
Extraction speed 3.5 X
Track quality 99.9 %
Test CRC A93DF1AD
Copy CRC A93DF1AD
Track not present in AccurateRip database
Copy OK
Track 5
Filename C:\Documents and Settings\user\Desktop\Francois Carrier, Michel Lambert - Shores and Ditches (2012) [FLAC] {FMR Rec}\05 - Wadi.wav
Pre-gap length 0:00:03.74
Peak level 96.6 %
Extraction speed 4.6 X
Track quality 99.9 %
Test CRC 31A0C876
Copy CRC 31A0C876
Track not present in AccurateRip database
Copy OK
Track 6
Filename C:\Documents and Settings\user\Desktop\Francois Carrier, Michel Lambert - Shores and Ditches (2012) [FLAC] {FMR Rec}\06 - Shores and Ditches.wav
Pre-gap length 0:00:03.74
Peak level 96.6 %
Extraction speed 5.0 X
Track quality 100.0 %
Test CRC C5091A71
Copy CRC C5091A71
Track not present in AccurateRip database
Copy OK
None of the tracks are present in the AccurateRip database
No errors occurred
End of status report
==== Log checksum 702903311897071AD07CFAA13A4E89715DBB990D549ACC64E745AF16B52BDBC4 ====
 
.cue
REM GENRE Jazz
REM DATE 2012
REM DISCID 5C0D2606
REM COMMENT "ExactAudioCopy v1.0b2"
PERFORMER "Francois Carrier, Michel Lambert"
TITLE "Shores and Ditches"
FILE "01 - Caldera.wav" WAVE
TRACK 01 AUDIO
TITLE "Caldera"
PERFORMER "Francois Carrier, Michel Lambert"
INDEX 01 00:00:00
TRACK 02 AUDIO
TITLE "Upstream"
PERFORMER "Francois Carrier, Michel Lambert"
INDEX 00 07:22:70
FILE "02 - Upstream.wav" WAVE
INDEX 01 00:00:00
TRACK 03 AUDIO
TITLE "Lava"
PERFORMER "Francois Carrier, Michel Lambert"
INDEX 00 18:54:47
FILE "03 - Lava.wav" WAVE
INDEX 01 00:00:00
TRACK 04 AUDIO
TITLE "Reef"
PERFORMER "Francois Carrier, Michel Lambert"
INDEX 00 04:27:58
FILE "04 - Reef.wav" WAVE
INDEX 01 00:00:00
TRACK 05 AUDIO
TITLE "Wadi"
PERFORMER "Francois Carrier, Michel Lambert"
INDEX 00 04:04:48
FILE "05 - Wadi.wav" WAVE
INDEX 01 00:00:00
TRACK 06 AUDIO
TITLE "Shores and Ditches"
PERFORMER "Francois Carrier, Michel Lambert"
INDEX 00 13:44:50
FILE "06 - Shores and Ditches.wav" WAVE
INDEX 01 00:00:00

другие релизы
Any questions -> support@pro-jazz.com. По всем вопросам пишите -> support@pro-jazz.com
18:29
153
Нет комментариев. Ваш будет первым!