Вы используете незарегистрированную версию компонента "Вкладки"!

Поиск

(Jazz, Avant-Garde, Experimental) [CD] Nicole Mitchell's Black Earth Ensemble - Intergalactic Beings - 2014, FLAC (tracks+.cue), lossless

(Jazz, Avant-Garde, Experimental) [CD] Nicole Mitchell's Black Earth Ensemble - Intergalactic Beings - 2014, FLAC (tracks+.cue), lossless
Треклист:
Nicole Mitchell's Black Earth EnsembleIntergalactic Beings

Жанр: Jazz, Avant-Garde, Experimental | Носитель: CD | Год издания: 2014 | Издатель: FPE Records | Номер по каталогу: 002Страна: US | Аудиокодек: FLAC (*.flac) | Тип рипа: tracks+.cue | Битрейт аудио: lossless | Продолжительность: 01:00:21Релизер: Caloriana | Наличие сканов: обложка из сети

 
Треклист

01. Phases of Subduction (10:21)
02. Cycle of Metamorphosis (5:31)
03. The Ooli Moves (8:06)
04. Dripping Matter (3:59)
05. Negotiating Identity (7:44)
06. Web of Hope (2:50)
07. Fields of Possibility (5:50)
08. Resisting Entanglement (6:19)
09. The Inevitable (9:45)
 
Логи
 
EAC
Exact Audio Copy V1.0 beta 3 from 29. August 2011
EAC extraction logfile from 6. August 2014, 17:12
Nicole Mitchell's Black Earth Ensemble / Intergalactic Beings
Used drive : ASUS DRW-24B3ST Adapter: 2 ID: 1
Read mode : Secure
Utilize accurate stream : Yes
Defeat audio cache : Yes
Make use of C2 pointers : No
Read offset correction : 6
Overread into Lead-In and Lead-Out : No
Fill up missing offset samples with silence : Yes
Delete leading and trailing silent blocks : No
Null samples used in CRC calculations : Yes
Used interface : Native Win32 interface for Win NT & 2000
Gap handling : Appended to previous track
Used output format : User Defined Encoder
Selected bitrate : 1024 kBit/s
Quality : High
Add ID3 tag : No
Command line compressor : C:\Program Files (x86)\Exact Audio Copy\Flac\flac.exe
Additional command line options : -8 -V -T "ARTIST=%artist%" -T "TITLE=%title%" -T "ALBUM=%albumtitle%" -T "DATE=%year%" -T "TRACKNUMBER=%tracknr%" -T "GENRE=%genre%" -T "PERFORMER=%albuminterpret%" -T "COMPOSER=%composer%" %haslyrics%-tag-from-file=LYRICS="%lyricsfile%"%haslyrics% -T "ALBUMARTIST=%albumartist%" -T "DISCNUMBER=%cdnumber%" -T "TOTALDISCS=%totalcds%" -T "TOTALTRACKS=%numtracks%" -T "COMMENT=%comment%" %source% -o %dest%
TOC of the extracted CD
Track | Start | Length | Start sector | End sector
---------------------------------------------------------
1 | 0:00.00 | 10:21.08 | 0 | 46582
2 | 10:21.08 | 5:30.44 | 46583 | 71376
3 | 15:51.52 | 8:05.73 | 71377 | 107824
4 | 23:57.50 | 3:58.68 | 107825 | 125742
5 | 27:56.43 | 7:43.67 | 125743 | 160534
6 | 35:40.35 | 2:49.53 | 160535 | 173262
7 | 38:30.13 | 5:50.35 | 173263 | 199547
8 | 44:20.48 | 6:19.34 | 199548 | 228006
9 | 50:40.07 | 9:45.33 | 228007 | 271914
Track 1
Filename E:\EACrips\01 Phases of Subduction.wav
Pre-gap length 0:00:02.00
Peak level 99.4 %
Extraction speed 3.9 X
Track quality 100.0 %
Test CRC 00845BF7
Copy CRC 00845BF7
Track not present in AccurateRip database
Copy OK
Track 2
Filename E:\EACrips\02 Cycle of Metamorphosis.wav
Pre-gap length 0:00:00.04
Peak level 100.0 %
Extraction speed 4.4 X
Track quality 100.0 %
Test CRC 8A0F5A86
Copy CRC 8A0F5A86
Track not present in AccurateRip database
Copy OK
Track 3
Filename E:\EACrips\03 The Ooli Moves.wav
Pre-gap length 0:00:00.22
Peak level 100.0 %
Extraction speed 5.0 X
Track quality 100.0 %
Test CRC D412B9CD
Copy CRC D412B9CD
Track not present in AccurateRip database
Copy OK
Track 4
Filename E:\EACrips\04 Dripping Matter.wav
Pre-gap length 0:00:01.56
Peak level 83.2 %
Extraction speed 5.0 X
Track quality 100.0 %
Test CRC B2CF4630
Copy CRC B2CF4630
Track not present in AccurateRip database
Copy OK
Track 5
Filename E:\EACrips\05 Negotiating Identity.wav
Pre-gap length 0:00:00.01
Peak level 100.0 %
Extraction speed 5.7 X
Track quality 100.0 %
Test CRC 9D6FB351
Copy CRC 9D6FB351
Track not present in AccurateRip database
Copy OK
Track 6
Filename E:\EACrips\06 Web of Hope.wav
Pre-gap length 0:00:02.04
Peak level 97.6 %
Extraction speed 5.3 X
Track quality 100.0 %
Test CRC 6DD1F8CB
Copy CRC 6DD1F8CB
Track not present in AccurateRip database
Copy OK
Track 7
Filename E:\EACrips\07 Fields of Possibility.wav
Peak level 99.7 %
Extraction speed 6.0 X
Track quality 100.0 %
Test CRC 255BEC9E
Copy CRC 255BEC9E
Track not present in AccurateRip database
Copy OK
Track 8
Filename E:\EACrips\08 Resisting Entanglement.wav
Peak level 98.4 %
Extraction speed 5.5 X
Track quality 99.9 %
Test CRC F3DDF66C
Copy CRC F3DDF66C
Track not present in AccurateRip database
Copy OK
Track 9
Filename E:\EACrips\09 The Inevitable.wav
Pre-gap length 0:00:01.42
Peak level 100.0 %
Extraction speed 6.8 X
Track quality 100.0 %
Test CRC DD7317FB
Copy CRC DD7317FB
Track not present in AccurateRip database
Copy OK
None of the tracks are present in the AccurateRip database
No errors occurred
End of status report
---- CUETools DB Plugin V2.1.4
[CTDB TOCID: 1GvjqPKdb_kEUq3bCWZlB2Psx1Y-] disk not present in database
Submit result: 1GvjqPKdb_kEUq3bCWZlB2Psx1Y- has been uploaded
==== Log checksum 6D2583CE68953A6D2ED517BB0DE0F2ECE9DA07EA6D94DB7E0E55C5D045F96C4D ====
 
Индексная карта (.CUE)
REM DATE 2014
REM DISCID 6F0E2909
REM COMMENT "ExactAudioCopy v1.0b3"
FILE "01 Phases of Subduction.wav" WAVE
TRACK 01 AUDIO
INDEX 01 00:00:00
TRACK 02 AUDIO
INDEX 00 10:21:05
FILE "02 Cycle of Metamorphosis.wav" WAVE
INDEX 01 00:00:00
TRACK 03 AUDIO
INDEX 00 05:30:27
FILE "03 The Ooli Moves.wav" WAVE
INDEX 01 00:00:00
TRACK 04 AUDIO
INDEX 00 08:04:31
FILE "04 Dripping Matter.wav" WAVE
INDEX 01 00:00:00
TRACK 05 AUDIO
INDEX 00 03:58:67
FILE "05 Negotiating Identity.wav" WAVE
INDEX 01 00:00:00
TRACK 06 AUDIO
INDEX 00 07:41:64
FILE "06 Web of Hope.wav" WAVE
INDEX 01 00:00:00
FILE "07 Fields of Possibility.wav" WAVE
TRACK 07 AUDIO
INDEX 01 00:00:00
FILE "08 Resisting Entanglement.wav" WAVE
TRACK 08 AUDIO
INDEX 01 00:00:00
TRACK 09 AUDIO
INDEX 00 06:18:02
FILE "09 The Inevitable.wav" WAVE
INDEX 01 00:00:00
 
Отчёт Folder.auCDtect
-----------------------
DON'T MODIFY THIS FILE
-----------------------
PERFORMER: auCDtect Task Manager, ver. 1.6.0 RC1 build 1.6.0.1
Copyright (c) 2008-2010 y-soft. All rights reserved
http://y-soft.org
ANALYZER: auCDtect: CD records authenticity detector, version 0.8.2
Copyright (c) 2004 Oleg Berngardt. All rights reserved.
Copyright (c) 2004 Alexander Djourik. All rights reserved.
FILE: 09 The Inevitable.flac
Size: 71429067 Hash: 433D899E75A98C8E8DDFDE4A561CCDEC Accuracy: -m0
Conclusion: CDDA 99%
Signature: 2B97528CD715FB5214E2CD45C2A1601355FB3D9C
FILE: 08 Resisting Entanglement.flac
Size: 37364377 Hash: 03C033C6884307697F51B308DE259B76 Accuracy: -m0
Conclusion: CDDA 99%
Signature: 7A678D440C6DB93465B87E1FF01C37ADF78B50B9
FILE: 07 Fields of Possibility.flac
Size: 37485072 Hash: EA5092D1BBB9AEFE6AA31A2F6B0CB8F1 Accuracy: -m0
Conclusion: CDDA 100%
Signature: 6FD558D0B4CF7F958D04B5E44B25E77F413CFFCC
FILE: 06 Web of Hope.flac
Size: 14552658 Hash: CF6002E6E2159ADFC98818ACD54413AF Accuracy: -m0
Conclusion: CDDA 100%
Signature: DF0A7DEE5EB62733FE9BEE0A5638A745D1958808
FILE: 05 Negotiating Identity.flac
Size: 45094297 Hash: F2B0418C8F119FDD43F6A8897627F4E3 Accuracy: -m0
Conclusion: CDDA 100%
Signature: 2155474A401FBF88FD56C8D382F531019644F42B
FILE: 04 Dripping Matter.flac
Size: 21191149 Hash: A7CFAE5CF3F59CAD8EAC1DB29D35DDF6 Accuracy: -m0
Conclusion: CDDA 100%
Signature: A682CC388903AFF6C3A5F472243225EF2AC2B4C1
FILE: 03 The Ooli Moves.flac
Size: 58430904 Hash: 63D8F338AAD340923124A049348F7775 Accuracy: -m0
Conclusion: CDDA 100%
Signature: 04EC01867CE1F2234E571635172DCC36411690E2
FILE: 02 Cycle of Metamorphosis.flac
Size: 25220149 Hash: 56C27E4BDF5B29065A5D801FDEA0DA4C Accuracy: -m0
Conclusion: CDDA 100%
Signature: 78AAE4F82F911C03F99EA98CED9BBC254DA3889F
FILE: 01 Phases of Subduction.flac
Size: 53659473 Hash: 0C6CA6B6DB06EC0B9D4325FDF23538E6 Accuracy: -m0
Conclusion: CDDA 100%
Signature: 3568F94EBA067E8ED36464EE36F3DD1168713D55
 
Ознакомление
 
Доп. информация
Релиз полностью готов к воспроизведению в аудиоплеере (я ориентировался на foobar2000)При скачивании, если необходимо, переименуйте папку, в которой будет находиться альбомБольшая просьба к скачавшим поддерживать раздачу! Помогайте другим, ведь вам тоже может понадобиться помощь!Не забываем говорить "Спасибо"!Комментарии приветствуются!

По всем вопросам пишите личное сообщение пользователю M0p94ok.
03:52
180
Нет комментариев. Ваш будет первым!