Вы используете незарегистрированную версию компонента "Вкладки"!

Поиск

(Avant-Garde, Chamber Jazz, Free Improvisation, NotTwo Records) [CD] Side A (Havard Wiik, Ken Vandermark, Chad Taylor) - In the Abstract - 2014, FLAC (tracks+.cue), lossless

(Avant-Garde, Chamber Jazz, Free Improvisation, NotTwo Records) [CD] Side A (Havard Wiik, Ken Vandermark, Chad Taylor) - In the Abstract - 2014, FLAC (tracks+.cue), lossless
Треклист:
Side A / In the Abstract
Жанр: Avant-Garde, Chamber Jazz, Free Improvisation, NotTwo Records
Носитель: CD
Страна-производитель диска: Poland
Год издания: 2014
Издатель (лейбл): NotTwo Records
Номер по каталогу: MW 917-2
Аудиокодек: FLAC (*.flac)
Тип рипа: tracks+.cue
Битрейт аудио: lossless
Продолжительность: 52:34
Источник (релизер): я
Наличие сканов в содержимом раздачи: да
Треклист:
1. Cadeau (for Man Ray) (Ken Vandermark) 4:59
2. BMC (Chad Taylor) 4:29
3. Semiology (Håvard Wiik) 9:28
4. Dhill (Chad Taylor) 3:23
5. 29 (Håvard Wiik) 4:58
6. Virano (Chad Taylor) 5:19
7. The Measure of Her Height (for Jorinde Voigt) (Ken Vandermark) 7:54
8. Strikes No Chord in My Memory (Håvard Wiik) 4:42
9. 4 from 5 to 6 (for Fred Hopkins, Steve McCall, Henry Threadgill) (Ken Vandermark) 7:22
Recorded in concert at Jazz Festival Ljubljana on July 3 & 4, 2013.
Håvard Wiik – Piano
Ken Vandermark – Reeds
Chad Taylor – Drums
 
Лог создания рипа
Exact Audio Copy V1.0 beta 3 from 29. August 2011
EAC extraction logfile from 28. July 2014, 18:03
Side A / In the Abstract
Used drive : hp BD E DS6E2LH Adapter: 0 ID: 1
Read mode : Secure
Utilize accurate stream : Yes
Defeat audio cache : Yes
Make use of C2 pointers : No
Read offset correction : 6
Overread into Lead-In and Lead-Out : No
Fill up missing offset samples with silence : Yes
Delete leading and trailing silent blocks : No
Null samples used in CRC calculations : Yes
Used interface : Native Win32 interface for Win NT & 2000
Gap handling : Appended to previous track
Used output format : User Defined Encoder
Selected bitrate : 768 kBit/s
Quality : High
Add ID3 tag : No
Command line compressor : C:\Program Files (x86)\Exact Audio Copy\Flac\flac.exe
Additional command line options : -8 -V -T "ARTIST=%artist%" -T "TITLE=%title%" -T "ALBUM=%albumtitle%" -T "DATE=%year%" -T "TRACKNUMBER=%tracknr%" -T "TOTALTRACKS=%numtracks%" -T "GENRE=%genre%" -T "ALBUMARTIST=%albumartist%" -T "ALBUM ARTIST=%albumartist%" -T "COMMENT=EAC Secure Mode, Test & Copy, AccurateRip, FLAC -8" %source%
TOC of the extracted CD
Track | Start | Length | Start sector | End sector
---------------------------------------------------------
1 | 0:00.00 | 4:59.33 | 0 | 22457
2 | 4:59.33 | 4:28.49 | 22458 | 42606
3 | 9:28.07 | 9:27.53 | 42607 | 85184
4 | 18:55.60 | 3:23.25 | 85185 | 100434
5 | 22:19.10 | 4:58.06 | 100435 | 122790
6 | 27:17.16 | 5:18.58 | 122791 | 146698
7 | 32:35.74 | 7:54.35 | 146699 | 182283
8 | 40:30.34 | 4:41.39 | 182284 | 203397
9 | 45:11.73 | 7:22.22 | 203398 | 236569
Track 1
Filename C:\EAC rips\01 - Cadeau (for Man Ray).wav
Pre-gap length 0:00:02.00
Peak level 92.2 %
Extraction speed 2.5 X
Track quality 99.9 %
Test CRC F956B7E7
Copy CRC F956B7E7
Track not present in AccurateRip database
Copy OK
Track 2
Filename C:\EAC rips\02 - BMC.wav
Peak level 92.2 %
Extraction speed 3.2 X
Track quality 100.0 %
Test CRC 66748012
Copy CRC 66748012
Track not present in AccurateRip database
Copy OK
Track 3
Filename C:\EAC rips\03 - Semiology.wav
Peak level 92.2 %
Extraction speed 3.6 X
Track quality 99.9 %
Test CRC 68248836
Copy CRC 68248836
Track not present in AccurateRip database
Copy OK
Track 4
Filename C:\EAC rips\04 - Dhill.wav
Peak level 92.2 %
Extraction speed 3.9 X
Track quality 100.0 %
Test CRC 90FD111F
Copy CRC 90FD111F
Track not present in AccurateRip database
Copy OK
Track 5
Filename C:\EAC rips\05 - 29.wav
Peak level 92.2 %
Extraction speed 4.3 X
Track quality 100.0 %
Test CRC 5639C46A
Copy CRC 5639C46A
Track not present in AccurateRip database
Copy OK
Track 6
Filename C:\EAC rips\06 - Virano.wav
Peak level 92.2 %
Extraction speed 4.6 X
Track quality 100.0 %
Test CRC 1A3ED05E
Copy CRC 1A3ED05E
Track not present in AccurateRip database
Copy OK
Track 7
Filename C:\EAC rips\07 - The Measure of Her Height (for Jorinde Voigt).wav
Peak level 92.2 %
Extraction speed 5.1 X
Track quality 100.0 %
Test CRC 54A9C79F
Copy CRC 54A9C79F
Track not present in AccurateRip database
Copy OK
Track 8
Filename C:\EAC rips\08 - Strikes No Chord in My Memory.wav
Peak level 92.2 %
Extraction speed 4.1 X
Track quality 99.9 %
Test CRC CA26ABFA
Copy CRC CA26ABFA
Track not present in AccurateRip database
Copy OK
Track 9
Filename C:\EAC rips\09 - 4 from 5 to 6 (for Fred Hopkins, Steve McCall, Henry Threadgill).wav
Peak level 92.2 %
Extraction speed 4.4 X
Track quality 100.0 %
Test CRC 399B04F9
Copy CRC 399B04F9
Track not present in AccurateRip database
Copy OK
None of the tracks are present in the AccurateRip database
No errors occurred
End of status report
---- CUETools DB Plugin V2.1.4
[CTDB TOCID: ZvzezmfDM1ByopREae8Kv7EUpe8-] disk not present in database
Submit result: ZvzezmfDM1ByopREae8Kv7EUpe8- has been uploaded
==== Log checksum 124165794FB2D174508D03E42EA86A40CFC1F979E9615DE85431E20829D93899 ====
 
Содержание индексной карты (.CUE)
REM GENRE "NotTwo MW 917-2"
REM DATE 2014
REM DISCID 680C5209
REM COMMENT "ExactAudioCopy v1.0b3"
PERFORMER "Side A"
TITLE "In the Abstract"
FILE "01 - Cadeau (for Man Ray).wav" WAVE
TRACK 01 AUDIO
TITLE "Cadeau (for Man Ray)"
PERFORMER "Side A"
INDEX 01 00:00:00
FILE "02 - BMC.wav" WAVE
TRACK 02 AUDIO
TITLE "BMC"
PERFORMER "Side A"
INDEX 01 00:00:00
FILE "03 - Semiology.wav" WAVE
TRACK 03 AUDIO
TITLE "Semiology"
PERFORMER "Side A"
INDEX 01 00:00:00
FILE "04 - Dhill.wav" WAVE
TRACK 04 AUDIO
TITLE "Dhill"
PERFORMER "Side A"
INDEX 01 00:00:00
FILE "05 - 29.wav" WAVE
TRACK 05 AUDIO
TITLE "29"
PERFORMER "Side A"
INDEX 01 00:00:00
FILE "06 - Virano.wav" WAVE
TRACK 06 AUDIO
TITLE "Virano"
PERFORMER "Side A"
INDEX 01 00:00:00
FILE "07 - The Measure of Her Height (for Jorinde Voigt).wav" WAVE
TRACK 07 AUDIO
TITLE "The Measure of Her Height (for Jorinde Voigt)"
PERFORMER "Side A"
INDEX 01 00:00:00
FILE "08 - Strikes No Chord in My Memory.wav" WAVE
TRACK 08 AUDIO
TITLE "Strikes No Chord in My Memory"
PERFORMER "Side A"
INDEX 01 00:00:00
FILE "09 - 4 from 5 to 6 (for Fred Hopkins, Steve McCall, Henry Threadgill).wav" WAVE
TRACK 09 AUDIO
TITLE "4 from 5 to 6 (for Fred Hopkins, Steve McCall, Henry Threadgill)"
PERFORMER "Side A"
INDEX 01 00:00:00
По всем вопросам пишите личное сообщение пользователю M0p94ok.
03:51
185
Нет комментариев. Ваш будет первым!