Вы используете незарегистрированную версию компонента "Вкладки"!

Поиск

(free jazz) [cd] Albert Ayler - The First Recordings, Vol. 2 1962, FLAC (tracks+.cue), lossless

(free jazz) [cd] Albert Ayler - The First Recordings, Vol. 2 1962, FLAC (tracks+.cue), lossless
Треклист:
(free jazz) [cd] Albert Ayler - The First Recordings, Vol. 2 1962, FLAC (tracks+.cue), lossless


Albert Ayler - The First Recordings, Vol. 2 1962

Жанр:free jazz
Год выпуска: 1962
Издатель (лейбл):1990, DIW Records / DIW-349
Формат: FLAC (tracks+.cue)
Битрейт аудио: lossless
Продолжительность 33`02
Источник: what.cd,
Bass – Torbjörn Hultcrantz
Drums – Sune Spångberg
Photography By [Cover] – Nils Edström
Producer – Bengt Nordström
Tenor Saxophone – Albert Ayler
Recorded: 1962/10/25 in Stockholm, Sweden

tracks

1 Softly As In A Morning Sunrise 8:18
2 I Didn't Know What Time It Was 7:43
3 Moanin' 10:13
4 Good Bait 6:48


 
.log
X Lossless Decoder version 20080926 (93.3)
XLD extraction logfile from 2009-01-14 23:15:22 -0800
Ayler, Albert / [1962] The first Recording Vol.2
Used drive : MATSHITA DVD-R UJ-846 (revision FAAG)
Use cdparanoia mode : YES (CDParanoia III 10.2 engine)
Disable audio cache : OK for the drive with cache less than 2750KB
Make use of C2 pointers : YES
Read offset correction : 102
Max retry count : 100
TOC of the extracted CD
Track | Start | Length | Start sector | End sector
---------------------------------------------------------
1 | 00:00:00 | 08:21:00 | 0 | 37574
2 | 08:21:00 | 07:46:22 | 37575 | 72546
3 | 16:07:22 | 10:16:23 | 72547 | 118769
4 | 26:23:45 | 06:48:07 | 118770 | 149376
All Tracks
Album gain : -3.56 dB
Peak : 0.987762
Track 01
Filename : Ayler, Albert - [1962] The first Recording Vol.2 [FLAC]/01 Softly as in a morning sunrise.flac
Track gain : -4.36 dB
Peak : 0.625183
CRC32 hash (test run) : 36FDABB5
CRC32 hash : 36FDABB5
CRC32 hash (skip zero) : 37170D6F
AccurateRip signature : 4D6FE8FC
->Track not present in AccurateRip database.
Statistics
Read error : 0
Skipped (treated as error) : 0
Edge jitter error (maybe fixed) : 0
Atom jitter error (maybe fixed) : 0
Drift error (maybe fixed) : 0
Dropped bytes error (maybe fixed) : 0
Duplicated bytes error (maybe fixed) : 0
Inconsistency in error sectors : 0
Track 02
Filename : Ayler, Albert - [1962] The first Recording Vol.2 [FLAC]/02 I didn't know what time it was.flac
Track gain : -0.68 dB
Peak : 0.645935
CRC32 hash (test run) : 6B758521
CRC32 hash : 6B758521
CRC32 hash (skip zero) : 8D561C05
AccurateRip signature : BB21683B
->Track not present in AccurateRip database.
Statistics
Read error : 0
Skipped (treated as error) : 0
Edge jitter error (maybe fixed) : 0
Atom jitter error (maybe fixed) : 0
Drift error (maybe fixed) : 0
Dropped bytes error (maybe fixed) : 0
Duplicated bytes error (maybe fixed) : 0
Inconsistency in error sectors : 0
Track 03
Filename : Ayler, Albert - [1962] The first Recording Vol.2 [FLAC]/03 Moanin'.flac
Track gain : -4.92 dB
Peak : 0.987762
CRC32 hash (test run) : DB62DB4B
CRC32 hash : DB62DB4B
CRC32 hash (skip zero) : 54D8D6E4
AccurateRip signature : D6B0D613
->Track not present in AccurateRip database.
Statistics
Read error : 0
Skipped (treated as error) : 0
Edge jitter error (maybe fixed) : 0
Atom jitter error (maybe fixed) : 0
Drift error (maybe fixed) : 0
Dropped bytes error (maybe fixed) : 0
Duplicated bytes error (maybe fixed) : 0
Inconsistency in error sectors : 0
Track 04
Filename : Ayler, Albert - [1962] The first Recording Vol.2 [FLAC]/04 Good Bait.flac
Track gain : 0.01 dB
Peak : 0.626648
CRC32 hash (test run) : B9A2103A
CRC32 hash : B9A2103A
CRC32 hash (skip zero) : BBE2DE29
AccurateRip signature : 9349D956
->Track not present in AccurateRip database.
Statistics
Read error : 0
Skipped (treated as error) : 0
Edge jitter error (maybe fixed) : 0
Atom jitter error (maybe fixed) : 0
Drift error (maybe fixed) : 0
Dropped bytes error (maybe fixed) : 0
Duplicated bytes error (maybe fixed) : 0
Inconsistency in error sectors : 0
No errors occurred
End of status report
 
.cue
REM COMMENT "CUETools generated dummy CUE sheet"
PERFORMER "Albert Ayler"
TITLE "The First Recordings, Vol. 2"
REM DATE 1962
REM GENRE "Avant - jazz"
FILE "01 Softly as in a Morning Sunrise.flac" WAVE
TRACK 01 AUDIO
PERFORMER "Albert Ayler"
TITLE "Softly as in a Morning Sunrise"
INDEX 01 00:00:00
FILE "02 I Didn't Know What Time It Was.flac" WAVE
TRACK 02 AUDIO
PERFORMER "Albert Ayler"
TITLE "I Didn't Know What Time It Was"
INDEX 01 00:00:00
FILE "03 Moanin'.flac" WAVE
TRACK 03 AUDIO
PERFORMER "Albert Ayler"
TITLE "Moanin'"
INDEX 01 00:00:00
FILE "04 Good Bait.flac" WAVE
TRACK 04 AUDIO
PERFORMER "Albert Ayler"
TITLE "Good Bait"
INDEX 01 00:00:00

http://www.discogs.com/Albert-Ayler-The-First-Recordings-Vol2/release/1028716
другие релизы
Any questions - support@pro-jazz.com. Есть вопросы - support@pro-jazz.com
03:51
273
Нет комментариев. Ваш будет первым!