Поиск

(Avant-Garde Jazz, Big Band, FMR, Free Improvisation) [CD] Glasgow Improvisers Orchestra & George Lewis (feat. George Burt & Raymond MacDonald) - Artificial Life 2007 - 2013, FLAC (tracks+.cue), lossless

(Avant-Garde Jazz, Big Band, FMR, Free Improvisation) [CD] Glasgow Improvisers Orchestra & George Lewis (feat. George Burt & Raymond MacDonald) - Artificial Life 2007 - 2013, FLAC (tracks+.cue), lossless
Glasgow Improvisers Orchestra & George Lewis / Artificial Life 2007
Жанр: Avant-Garde Jazz, Big Band, FMR, Free Improvisation
Носитель: CD
Страна-производитель диска: UK
Год издания: 2013
Издатель (лейбл): FMR Records
Номер по каталогу: FMRCD366-1013
Страна: UK
Аудиокодек: FLAC (*.flac)
Тип рипа: tracks+.cue
Битрейт аудио: lossless
Продолжительность: 48:34
Источник (релизер): свой фирменный диск
Наличие сканов в содержимом раздачи:
Треклист:
1. Artificial Life 2007: Page One 9:58
2. Artificial Life 2007: Page Two 18:39
3. Free Improvisation 19:54
 
Лог создания рипа
Exact Audio Copy V1.0 beta 3 from 29. August 2011
EAC extraction logfile from 1. June 2014, 14:30
Glasgow Improvisers Orchestra & George Lewis / Artificial Life 2007
Used drive : PIONEER DVD-RW DVR-115D Adapter: 0 ID: 0
Read mode : Secure
Utilize accurate stream : Yes
Defeat audio cache : Yes
Make use of C2 pointers : No
Read offset correction : 48
Overread into Lead-In and Lead-Out : No
Fill up missing offset samples with silence : Yes
Delete leading and trailing silent blocks : No
Null samples used in CRC calculations : Yes
Used interface : Installed external ASPI interface
Gap handling : Appended to previous track
Used output format : User Defined Encoder
Selected bitrate : 896 kBit/s
Quality : High
Add ID3 tag : No
Command line compressor : C:\Program Files\Exact Audio Copy\FLAC\FLAC.EXE
Additional command line options : -6 -V -T "ARTIST=%artist%" -T "TITLE=%title%" -T "ALBUM=%albumtitle%" -T "DATE=%year%" -T "TRACKNUMBER=%tracknr%" -T "GENRE=%genre%" -T "COMMENT=%comment%" -T "BAND=%albuminterpret%" -T "COMPOSER=%composer%" %haslyrics%--tag-from-file=LYRICS="%lyricsfile%"%haslyrics% -T "DISCNUMBER=%cdnumber%" -T "TOTALDISCS=%totalcds%" -T "TOTALTRACKS=%numtracks%" %hascover%--picture="%coverfile%"%hascover% %source% -o %dest%
TOC of the extracted CD
Track | Start | Length | Start sector | End sector
---------------------------------------------------------
1 | 0:00.00 | 10:00.07 | 0 | 45006
2 | 10:00.07 | 18:40.32 | 45007 | 129038
3 | 28:40.39 | 19:54.08 | 129039 | 218596
Track 1
Filename D:\zzz\01 - Artificial Life 2007- Page One.wav
Pre-gap length 0:00:02.00
Peak level 100.0 %
Extraction speed 5.3 X
Track quality 100.0 %
Test CRC 7CE98288
Copy CRC 7CE98288
Track not present in AccurateRip database
Copy OK
Track 2
Filename D:\zzz\02 - Artificial Life 2007- Page Two.wav
Pre-gap length 0:00:02.00
Peak level 99.9 %
Extraction speed 6.8 X
Track quality 100.0 %
Test CRC 613D89BE
Copy CRC 613D89BE
Track not present in AccurateRip database
Copy OK
Track 3
Filename D:\zzz\03 - Free Improvisation.wav
Pre-gap length 0:00:02.00
Peak level 100.0 %
Extraction speed 8.3 X
Track quality 100.0 %
Test CRC 4C1D16C7
Copy CRC 4C1D16C7
Track not present in AccurateRip database
Copy OK
None of the tracks are present in the AccurateRip database
No errors occurred
End of status report
==== Log checksum D264068986F7D6E107C7D9CCA3B21EA0DFB8CBEE252C3B06ECD0D8108286EB98 ====
 
Содержание индексной карты (.CUE)
REM GENRE "Free Improvisation"
REM DATE 2013
REM DISCID 160B6203
REM COMMENT "ExactAudioCopy v1.0b3"
PERFORMER "Glasgow Improvisers Orchestra & George Lewis"
TITLE "Artificial Life 2007"
FILE "01 - Artificial Life 2007- Page One.wav" WAVE
TRACK 01 AUDIO
TITLE "Artificial Life 2007: Page One"
PERFORMER "Glasgow Improvisers Orchestra & George Lewis"
INDEX 01 00:00:00
TRACK 02 AUDIO
TITLE "Artificial Life 2007: Page Two"
PERFORMER "Glasgow Improvisers Orchestra & George Lewis"
INDEX 00 09:58:07
FILE "02 - Artificial Life 2007- Page Two.wav" WAVE
INDEX 01 00:00:00
TRACK 03 AUDIO
TITLE "Free Improvisation"
PERFORMER "Glasgow Improvisers Orchestra & George Lewis"
INDEX 00 18:38:32
FILE "03 - Free Improvisation.wav" WAVE
INDEX 01 00:00:00
 
Лог проверки качества
d:\>d:\aucdtect -d/-m0 d:\zzz\*.wav
auCDtect: CD records authenticity detector, version 0.8.2
Copyright (c) 2004 Oleg Berngardt. All rights reserved.
Copyright (c) 2004 Alexander Djourik. All rights reserved.
------------------------------------------------------------
Processing file: [01. Artificial Life 2007- Page One.wav]
------------------------------------------------------------
This track looks like CDDA with probability 100%
------------------------------------------------------------
Processing file: [02. Artificial Life 2007- Page Two.wav]
------------------------------------------------------------
This track looks like CDDA with probability 100%
------------------------------------------------------------
Processing file: [03. Free Improvisation.wav]
------------------------------------------------------------
This track looks like CDDA with probability 100%
------------------------------------------------------------
Final Conclusion:
------------------------------------------------------------
These tracks looks like CDDA with probability 100%
Доп. информация:
 
Album Info & Review
Artificial Life 2007 composed by George Lewis
Recorded at the CCA, Glasgow on 02.12.12
Recording engineer: Kenny MacLeod
Mixing: Jim McEwan
Mastering: Shawn Joseph at Optimum Mastering
Produced by Una MacGlone and Raymond MacDonald
Paintings by Raymond MacDonald
Liner notes: Glasgow Improvisers Orchestra, George Lewis
With thanks to Creative Scotland and CCA
This new version of George Lewis’s Artificial Life 2007 was recorded at Glasgow Improvisers Orchestra’s tenth-anniversary festival in 2012. The innovative US trombonist and composer’s score is a set of instructions, presented graphically on a grid, which the musicians respond to as they see fit. When, what and how to play is up to them, unless indicated otherwise. The result is an extremely detailed music, based on textural rather than harmonic or rhythmic development. ‘Part One’ begins with images of jelly being nailed to a wall, and with the rubbery burble of Lewis’s trombone slipping around a prepared-piano squeak. As that falls away, Neil Davidson’s submarine radar guitar ping picks up the susurrous murmurs of Maggie Nicols’ vocals, before impressionistic piano chords prompt Robert Henderson to dab a few smears of Sketches of Spain trumpet. Under Lewis’s generous stewardship, such fleeting moments coalesce into a fascinating, often affecting whole. (list.co.uk)
 
Состав
Rick Bamford: drums
Stu Brown: drums
George Burt: acoustic guitar
Neil Davidson: electric guitar
Robert Henderson: trumpet
Fergus Kerr: french horn
George Lewis: trombone
George Lyle: double bass
Nicola MacDonald: voice
Raymond MacDonald: saxophones (alto & soprano)
Jim McEwan: Rhodes & electronics
Una MacGlone: double bass
Nicole McNeilly: trombone
George Murray: trombone
Peter Nicholson: cello
Maggie Nicols: voice
Anne Rankin: oboe
Emma Roche: flute
Gerry Rossi: piano
Liene Rozite: flute
Armin Sturm: double bass
Graeme Wilson: saxophones (tenor & baritone)
03:53
305
Нет комментариев. Ваш будет первым!