Поиск

(Jazz, Avant garde) Edouard Ferlet - Filigrane - 2009, FLAC (tracks+.cue), lossless

(Jazz, Avant garde) Edouard Ferlet - Filigrane - 2009, FLAC (tracks+.cue), lossless
Треклист:
Edouard Ferlet - Filigrane
Жанр: Jazz, Avant garde
Год выпуска диска: 2009
Производитель диска: Melisse / Abeille musique - ASIN : B002RBZ1MW
Аудио кодек: FLAC
Тип рипа: tracks+.cue
Битрейт аудио: lossless
Продолжительность: 50:54
Источник: Собственный рип с оригинального диска
Трэклист:
# 1 La Fable du grimoire 00:04:52
# 2 Il n'y a plus d'appret 00:02:46
# 3 Salamandre 00:04:00
# 4 Valentine's 00:05:18
# 5 Note Line 00:04:49
# 6 Bords perdus 00:02:49
# 7 Interchange 00:05:54
# 8 Julien 00:03:53
# 9 Amane 00:03:25
# 10 Sans titre apparent 00:04:10
# 11 Tamanraset 00:05:13
# 12 Je viens d'apprendre 00:03:39
Edouard Ferlet (p, comp), Airelle Besson (tp, voc), Alexandra Grimal (sax, voc) Fabrice Moreau (dm, voc, compositions)
 
Дщп EAC
Exact Audio Copy V0.99 prebeta 5 from 4. May 2009
EAC extraction logfile from 11. April 2010, 6:05
Unknown Artist / Unknown Title
Used drive : Optiarc DVD RW AD-7200S Adapter: 1 ID: 1
Read mode : Secure
Utilize accurate stream : Yes
Defeat audio cache : Yes
Make use of C2 pointers : No
Read offset correction : 48
Overread into Lead-In and Lead-Out : No
Fill up missing offset samples with silence : Yes
Delete leading and trailing silent blocks : No
Null samples used in CRC calculations : Yes
Used interface : Native Win32 interface for Win NT & 2000
Gap handling : Appended to previous track
Used output format : User Defined Encoder
Selected bitrate : 768 kBit/s
Quality : High
Add ID3 tag : No
Command line compressor : D:\Program Files\FLAC\flac.exe
Additional command line options : -V -8 -T "artist=%a" -T "title=%t" -T "album=%g" -T "date=%y" -T "tracknumber=%n" -T "genre=%m" %s
TOC of the extracted CD
Track | Start | Length | Start sector | End sector
---------------------------------------------------------
1 | 0:00.00 | 4:52.19 | 0 | 21918
2 | 4:52.19 | 2:46.04 | 21919 | 34372
3 | 7:38.23 | 4:00.30 | 34373 | 52402
4 | 11:38.53 | 5:18.18 | 52403 | 76270
5 | 16:56.71 | 4:49.55 | 76271 | 98000
6 | 21:46.51 | 2:49.50 | 98001 | 110725
7 | 24:36.26 | 5:54.48 | 110726 | 137323
8 | 30:30.74 | 3:53.32 | 137324 | 154830
9 | 34:24.31 | 3:25.49 | 154831 | 170254
10 | 37:50.05 | 4:10.66 | 170255 | 189070
11 | 42:00.71 | 5:13.45 | 189071 | 212590
12 | 47:14.41 | 3:39.30 | 212591 | 229045
Track 1
Filename J:\Music\WCD\01. Track01 (Unknown Artist - Unknown Title - ).wav
Pre-gap length 0:00:02.00
Peak level 98.0 %
Track quality 100.0 %
Test CRC CDFF97B4
Copy CRC CDFF97B4
Track not present in AccurateRip database
Copy OK
Track 2
Filename J:\Music\WCD\02. Track02 (Unknown Artist - Unknown Title - ).wav
Peak level 98.0 %
Track quality 99.9 %
Test CRC 5515BFCA
Copy CRC 5515BFCA
Track not present in AccurateRip database
Copy OK
Track 3
Filename J:\Music\WCD\03. Track03 (Unknown Artist - Unknown Title - ).wav
Peak level 98.0 %
Track quality 99.9 %
Test CRC DBF4A297
Copy CRC DBF4A297
Track not present in AccurateRip database
Copy OK
Track 4
Filename J:\Music\WCD\04. Track04 (Unknown Artist - Unknown Title - ).wav
Peak level 98.0 %
Track quality 100.0 %
Test CRC 0C65AAAB
Copy CRC 0C65AAAB
Track not present in AccurateRip database
Copy OK
Track 5
Filename J:\Music\WCD\05. Track05 (Unknown Artist - Unknown Title - ).wav
Peak level 98.0 %
Track quality 100.0 %
Test CRC E2D1074F
Copy CRC E2D1074F
Track not present in AccurateRip database
Copy OK
Track 6
Filename J:\Music\WCD\06. Track06 (Unknown Artist - Unknown Title - ).wav
Peak level 98.0 %
Track quality 99.9 %
Test CRC FC094EE5
Copy CRC FC094EE5
Track not present in AccurateRip database
Copy OK
Track 7
Filename J:\Music\WCD\07. Track07 (Unknown Artist - Unknown Title - ).wav
Peak level 98.0 %
Track quality 99.9 %
Test CRC B9C66AE9
Copy CRC B9C66AE9
Track not present in AccurateRip database
Copy OK
Track 8
Filename J:\Music\WCD\08. Track08 (Unknown Artist - Unknown Title - ).wav
Peak level 98.0 %
Track quality 99.9 %
Test CRC 2210D9EA
Copy CRC 2210D9EA
Track not present in AccurateRip database
Copy OK
Track 9
Filename J:\Music\WCD\09. Track09 (Unknown Artist - Unknown Title - ).wav
Peak level 98.0 %
Track quality 100.0 %
Test CRC 3D8C27AC
Copy CRC 3D8C27AC
Track not present in AccurateRip database
Copy OK
Track 10
Filename J:\Music\WCD\10. Track10 (Unknown Artist - Unknown Title - ).wav
Peak level 98.0 %
Track quality 100.0 %
Test CRC AFE3D1F9
Copy CRC AFE3D1F9
Track not present in AccurateRip database
Copy OK
Track 11
Filename J:\Music\WCD\11. Track11 (Unknown Artist - Unknown Title - ).wav
Peak level 98.0 %
Track quality 100.0 %
Test CRC A5A587F9
Copy CRC A5A587F9
Track not present in AccurateRip database
Copy OK
Track 12
Filename J:\Music\WCD\12. Track12 (Unknown Artist - Unknown Title - ).wav
Peak level 98.0 %
Track quality 100.0 %
Test CRC 635093FD
Copy CRC 635093FD
Track not present in AccurateRip database
Copy OK
None of the tracks are present in the AccurateRip database
No errors occurred
End of status report
 
О компании:
For his label Melissa Edouard Ferlet chose originality, distinction and a certain elegance, both on the container (pouch) and the contents of each album. In case the black and white only, and figures - those musicians - already a watermark, a word which can be applied by one of its meanings: "item of jewelry made of copper wire interwoven and welded. For there is that in these eight compositions whose titles are not trivial, Edouard Ferlet not hesitating, in his conception of a work, to approach the fringes of the mysterious, the unexpected, when it 's is not the unusual (here, the absence of inducing bass, he said, an unusual mode of play).
Ferlet knows jazz, classical music and the so-called contemporary, and declares admire the work of Henri Dutilleux, Messiaen assess patterns of color and art of Charles Koechlin, all this runs through his own works and modes of interpretation.
It is constantly under the spell (hex) of these alliances (which are combinations) - and not alloys (amalgams) - through writing and purified both dense, sweet and strong embraces conflagrations between themes and stamps ("The fable of scrawl, "Amane"), these vines flexible sound, this approach will embrace the invisible, the inscrutable, often walks over to look perky ("Untitled apparent") or rides on the more troubling back roads ("Salamander").
The contribution of presences women? Note the purity of the sound of Cranberry Besson and conciseness of his phrasing, the graceful volubility Alexandra Grimal soprano. What about the two men, except that we already know the high level of talent? ... [1]
We know from Kant that "Music is the language of emotions", I would add that the music is (also) made as a silent dream. With this disc, Edouard Ferlet offers, in its way, a new key to open the door wide dreams and mirages that too.
Jacques Chesnel / citizenjazz.com and google's translation
[1] (accuracy of some importance: the recording session took place in one room, without separation of instrument and without helmet.
REWARD : So Jazz (décembre 2009)
 
CUE
REM DISCID 930BED0C
REM COMMENT "ExactAudioCopy v0.99pb5"
FILE "01. La fable du grimoire.wav" WAVE
TRACK 01 AUDIO
INDEX 01 00:00:00
FILE "02. Il n'y a plus d'apprêt.wav" WAVE
TRACK 02 AUDIO
INDEX 01 00:00:00
FILE "03. Salamandre.wav" WAVE
TRACK 03 AUDIO
INDEX 01 00:00:00
FILE "04. Valentine's day.wav" WAVE
TRACK 04 AUDIO
INDEX 01 00:00:00
FILE "05. Note line.wav" WAVE
TRACK 05 AUDIO
INDEX 01 00:00:00
FILE "06. Bords perdus.wav" WAVE
TRACK 06 AUDIO
INDEX 01 00:00:00
FILE "07. Interchange.wav" WAVE
TRACK 07 AUDIO
INDEX 01 00:00:00
FILE "08. Julien.wav" WAVE
TRACK 08 AUDIO
INDEX 01 00:00:00
FILE "09. Amane.wav" WAVE
TRACK 09 AUDIO
INDEX 01 00:00:00
FILE "10. Sans titre apparent.wav" WAVE
TRACK 10 AUDIO
INDEX 01 00:00:00
FILE "11. Tamanraset.wav" WAVE
TRACK 11 AUDIO
INDEX 01 00:00:00
FILE "12. Je viens d'apprendre.wav" WAVE
TRACK 12 AUDIO
INDEX 01 00:00:00
По всем вопросам пишите личное сообщение пользователю M0p94ok.
20:57
198
Нет комментариев. Ваш будет первым!