Вы используете незарегистрированную версию компонента "Вкладки"!

Поиск

(Free Improvisation, Free-Jazz) Per-Ake Holmlander - Carliot Still Walking (3CD) - 2000, FLAC (tracks+.cue), lossless

Треклист:
Per-Ake Holmlander - Together
Жанр: Free Improvisation, Free-Jazz
Год выпуска диска: 2000
Производитель диска: Sweden
Аудио кодек: FLAC
Тип рипа: tracks+.cue
Битрейт аудио: lossless
Продолжительность: 19:00
Трэклист:
01 - Good Friends (5:09)
02 - Nice Friends (3:33)
03 - Strange Friends (6:24)
04 - Fallvinsvals (3:55)
Доп. информация: Mats Gustafsson as
Per-Åke Holmlander tb, tuba
Lindha Svantesson voc
Mikael Stavöstrand laptop
Henry Moore Selder turntables
Kjell Nordeson dr
 
cue
REM GENRE free-jazz
REM DATE 2000
REM DISCID 20047404
REM COMMENT "ExactAudioCopy v0.99pb4"
FILE "01 - Good Friends.wav" WAVE
TRACK 01 AUDIO
INDEX 01 00:00:00
TRACK 02 AUDIO
INDEX 00 05:06:33
FILE "02 - Nice Friends.wav" WAVE
INDEX 01 00:00:00
TRACK 03 AUDIO
INDEX 00 03:31:32
FILE "03 - Strange Friends.wav" WAVE
INDEX 01 00:00:00
TRACK 04 AUDIO
INDEX 00 06:20:17
FILE "04 - Fallvinsvals.wav" WAVE
INDEX 01 00:00:00
 
EAC Log
Exact Audio Copy V0.99 prebeta 4 from 23. January 2008
EAC extraction logfile from 10. April 2010, 10:51
Carliot Still Walking / Per-Ake Holmlander
Used drive : HL-DT-STDVD-RAM GSA-H55N Adapter: 0 ID: 0
Read mode : Secure
Utilize accurate stream : Yes
Defeat audio cache : Yes
Make use of C2 pointers : No
Read offset correction : 102
Overread into Lead-In and Lead-Out : No
Fill up missing offset samples with silence : Yes
Delete leading and trailing silent blocks : No
Null samples used in CRC calculations : Yes
Used interface : Native Win32 interface for Win NT & 2000
Gap handling : Appended to previous track
Used output format : User Defined Encoder
Selected bitrate : 768 kBit/s
Quality : High
Add ID3 tag : No
Command line compressor : J:\temp\Program Files\Exact Audio Copy\FLAC\FLAC.EXE
Additional command line options : -V -8 -T "artist=%a" -T "title=%t" -T "album=%g" -T "date=%y" -T "tracknumber=%n" -T "genre=%m" %s
TOC of the extracted CD
Track | Start | Length | Start sector | End sector
---------------------------------------------------------
1 | 0:00.00 | 5:08.44 | 0 | 23143
2 | 5:08.44 | 3:32.70 | 23144 | 39113
3 | 8:41.39 | 6:23.71 | 39114 | 67909
4 | 15:05.35 | 3:55.14 | 67910 | 85548
Track 1
Filename D:\eac\01 - Good Friends.wav
Pre-gap length 0:00:02.00
Peak level 100.0 %
Track quality 99.8 %
Test CRC 9A1ADA04
Copy CRC 9A1ADA04
Copy OK
Track 2
Filename D:\eac\02 - Nice Friends.wav
Pre-gap length 0:00:02.14
Peak level 78.8 %
Track quality 100.0 %
Test CRC C2672760
Copy CRC C2672760
Copy OK
Track 3
Filename D:\eac\03 - Strange Friends.wav
Pre-gap length 0:00:01.50
Peak level 88.3 %
Track quality 100.0 %
Test CRC B77A95A1
Copy CRC B77A95A1
Copy OK
Track 4
Filename D:\eac\04 - Fallvinsvals.wav
Pre-gap length 0:00:03.72
Peak level 75.6 %
Track quality 100.0 %
Test CRC 77EE4A64
Copy CRC 77EE4A64
Copy OK
No errors occurred
End of status report
Per-Ake Holmlander - Alone
Жанр: Free Improvisation, Free-Jazz
Год выпуска диска: 2000
Производитель диска: Sweden
Аудио кодек: FLAC
Тип рипа: tracks+.cue
Битрейт аудио: lossless
Продолжительность: 19:00
Трэклист:
01 - Turn Out (1:47)
02 - Turn In - Once (4:44)
03 - Down & Ups (4:21)
04 - R&D Barbecue (2:57)
05 - Turn In - Twice (3:34)
06 - Vals till Sonja (1:38)
Доп. информация: Per-Åke Holmlander tb, tuba, cimbasso
 
cue
REM GENRE free-jazz
REM DISCID 3B047406
REM COMMENT "ExactAudioCopy v0.99pb4"
FILE "01 - Turn Out.wav" WAVE
TRACK 01 AUDIO
INDEX 01 00:00:00
TRACK 02 AUDIO
INDEX 00 01:45:19
FILE "02 - Turn In - Once.wav" WAVE
INDEX 01 00:00:00
TRACK 03 AUDIO
INDEX 00 04:38:36
FILE "03 - Down & Ups.wav" WAVE
INDEX 01 00:00:00
TRACK 04 AUDIO
INDEX 00 04:16:26
FILE "04 - R&D Barbecue.wav" WAVE
INDEX 01 00:00:00
TRACK 05 AUDIO
INDEX 00 02:55:13
FILE "05 - Turn In - Twice.wav" WAVE
INDEX 01 00:00:00
TRACK 06 AUDIO
INDEX 00 03:30:74
FILE "06 - Vals till Sonja.wav" WAVE
INDEX 01 00:00:00
 
EAC Log
Exact Audio Copy V0.99 prebeta 4 from 23. January 2008
EAC extraction logfile from 10. April 2010, 11:24
Carliot Still Walking / Per-Ake Holmlander
Used drive : HL-DT-STDVD-RAM GSA-H55N Adapter: 0 ID: 0
Read mode : Secure
Utilize accurate stream : Yes
Defeat audio cache : Yes
Make use of C2 pointers : No
Read offset correction : 102
Overread into Lead-In and Lead-Out : No
Fill up missing offset samples with silence : Yes
Delete leading and trailing silent blocks : No
Null samples used in CRC calculations : Yes
Used interface : Native Win32 interface for Win NT & 2000
Gap handling : Appended to previous track
Used output format : User Defined Encoder
Selected bitrate : 768 kBit/s
Quality : High
Add ID3 tag : No
Command line compressor : J:\temp\Program Files\Exact Audio Copy\FLAC\FLAC.EXE
Additional command line options : -V -8 -T "artist=%a" -T "title=%t" -T "album=%g" -T "date=%y" -T "tracknumber=%n" -T "genre=%m" %s
TOC of the extracted CD
Track | Start | Length | Start sector | End sector
---------------------------------------------------------
1 | 0:00.00 | 1:46.70 | 0 | 8019
2 | 1:46.70 | 4:43.56 | 8020 | 29300
3 | 6:30.51 | 4:20.56 | 29301 | 48856
4 | 10:51.32 | 2:56.74 | 48857 | 62130
5 | 13:48.31 | 3:34.13 | 62131 | 78193
6 | 17:22.44 | 1:37.49 | 78194 | 85517
Track 1
Filename D:\eac\01 - Turn Out.wav
Pre-gap length 0:00:02.00
Peak level 91.9 %
Track quality 99.8 %
Test CRC 749B478F
Copy CRC 749B478F
Copy OK
Track 2
Filename D:\eac\02 - Turn In - Once.wav
Pre-gap length 0:00:01.68
Peak level 100.0 %
Track quality 100.0 %
Test CRC 2030A825
Copy CRC 2030A825
Copy OK
Track 3
Filename D:\eac\03 - Down & Ups.wav
Pre-gap length 0:00:05.26
Peak level 94.9 %
Track quality 100.0 %
Test CRC 567B7DF7
Copy CRC 567B7DF7
Copy OK
Track 4
Filename D:\eac\04 - R&D Barbecue.wav
Pre-gap length 0:00:04.40
Peak level 100.0 %
Track quality 99.9 %
Test CRC E6C9684D
Copy CRC E6C9684D
Copy OK
Track 5
Filename D:\eac\05 - Turn In - Twice.wav
Pre-gap length 0:00:01.81
Peak level 86.8 %
Track quality 99.9 %
Test CRC 12705022
Copy CRC 12705022
Copy OK
Track 6
Filename D:\eac\06 - Vals till Sonja.wav
Pre-gap length 0:00:03.18
Peak level 29.7 %
Track quality 99.8 %
Test CRC DA167A18
Copy CRC DA167A18
Copy OK
No errors occurred
End of status report
Per-Ake Holmlander - Och...!!?
Жанр: Free Improvisation, Free-Jazz
Год выпуска диска: 2002
Производитель диска: Sweden
Аудио кодек: FLAC
Тип рипа: tracks+.cue
Битрейт аудио: lossless
Продолжительность: 17:34
Трэклист:
01 - Och...!!? (17:34)
Доп. информация: Per-Åke Holmlander
 
cue
REM GENRE free-jazz
REM DATE 2002
REM DISCID 02041E01
REM COMMENT "ExactAudioCopy v0.99pb4"
FILE "01 - Och...!! .wav" WAVE
TRACK 01 AUDIO
INDEX 01 00:00:00
 
EAC Log
Exact Audio Copy V0.99 prebeta 4 from 23. January 2008
EAC extraction logfile from 10. April 2010, 11:44
Carliot Still Walking / Per-Ake Holmlander
Used drive : HL-DT-STDVD-RAM GSA-H55N Adapter: 0 ID: 0
Read mode : Secure
Utilize accurate stream : Yes
Defeat audio cache : Yes
Make use of C2 pointers : No
Read offset correction : 102
Overread into Lead-In and Lead-Out : No
Fill up missing offset samples with silence : Yes
Delete leading and trailing silent blocks : No
Null samples used in CRC calculations : Yes
Used interface : Native Win32 interface for Win NT & 2000
Gap handling : Appended to previous track
Used output format : User Defined Encoder
Selected bitrate : 768 kBit/s
Quality : High
Add ID3 tag : No
Command line compressor : J:\temp\Program Files\Exact Audio Copy\FLAC\FLAC.EXE
Additional command line options : -V -8 -T "artist=%a" -T "title=%t" -T "album=%g" -T "date=%y" -T "tracknumber=%n" -T "genre=%m" %s
TOC of the extracted CD
Track | Start | Length | Start sector | End sector
---------------------------------------------------------
1 | 0:00.00 | 17:34.21 | 0 | 79070
Track 1
Filename D:\eac\01 - Och...!! .wav
Pre-gap length 0:00:02.00
Peak level 91.8 %
Track quality 99.9 %
Test CRC 02CBE242
Copy CRC 02CBE242
Copy OK
No errors occurred
End of status report
Такой вот альбом шведского тубиста. Три диска, но они маленькие.
Any questions -> support@pro-jazz.com. По всем вопросам пишите -> support@pro-jazz.com
20:58
197
Нет комментариев. Ваш будет первым!