Вы используете незарегистрированную версию компонента "Вкладки"!

Поиск

(Modern Creative / NY Downtown / Tzadik Film Music) Jamie Saft - A Bag of Shells - 2010, FLAC (image+.cue), lossless

(Modern Creative / NY Downtown / Tzadik Film Music) Jamie Saft - A Bag of Shells - 2010, FLAC (image+.cue), lossless
Треклист:
Jamie Saft - A Bag of Shells

Жанр: Modern Creative / NY Downtown / Tzadik Film Music
Год выпуска диска: 2010
Производитель диска: Tzadik TZ 7520; USA
Аудио кодек: FLAC
Тип рипа: image+.cue
Битрейт аудио: lossless
Продолжительность: 49:45
Jamie Saft: Fender rhodes, synthesizers, guitars, bass, organs, mellotron, Wurlitzer electric piano, piano, drums, percussion, programming
Cyro Baptista: percussion
Shanir Ezra Blumenkranz: oud
Erik Friedlander: cello
Bobby Previte: drums
Vin Cin: bass
Bill McHenry: saxophone
Dmitriy Shnaydman: drums
Yacouba Sissoko: kora
1. Murderball
2. My Biggest Fear
3. Circle C
4. Morning Music
5. Social Security
6. Joe's Rush
7. Ninann
8. Right Again
9. Piano for the Masses
10. Parliament
11. Keith Goes Home
12. Job Corps
13. Dezert Blues
14. Hyphen's Air
15. Hermans
16. Brooklyn Exile

 
Tzadik Release Notes
Virtuoso pianist/guitarist/recording engineer/composer Jamie Saft has been a crucial member of the downtown scene since the early 1990s, both as sideman and as leader of his own ensembles. In more recent years he has turned his hand to scoring film, and this exciting collection displays the incredible facility and diverse range of his compositional and production skills. Recorded and mixed at his infamous studio Frank Booth, the cues range from jazz, reggae and heavy metal to Jewish music, classical and more. A talented multi-instrumentalist, Jamie performs most of the music himself, bringing in a few luminaries from the downtown scene as special guests. The music is moody, intense, driving, lyrical and a constant delight. ~ Tzadik
 
EAC Report
Exact Audio Copy V0.99 prebeta 5 from 4. May 2009
EAC extraction logfile from 10. April 2010, 15:29
Jamie Saft / A Bag of Shells
Used drive : TSSTcorpCD/DVDW SH-S182M Adapter: 1 ID: 0
Read mode : Secure
Utilize accurate stream : Yes
Defeat audio cache : Yes
Make use of C2 pointers : No
Read offset correction : 6
Overread into Lead-In and Lead-Out : No
Fill up missing offset samples with silence : Yes
Delete leading and trailing silent blocks : No
Null samples used in CRC calculations : Yes
Used interface : Installed external ASPI interface
Used output format : User Defined Encoder
Selected bitrate : 1024 kBit/s
Quality : High
Add ID3 tag : No
Command line compressor : C:\Program Files\Exact Audio Copy\Flac\flac.exe
Additional command line options : -8 -V -T "ARTIST=%a" -T "TITLE=%t" -T "ALBUM=%g" -T "DATE=%y" -T "TRACKNUMBER=%n" -T "GENRE=%m" -T "COMMENT=EAC FLAC -8" %s
TOC of the extracted CD
Track | Start | Length | Start sector | End sector
---------------------------------------------------------
1 | 0:00.00 | 1:22.39 | 0 | 6188
2 | 1:22.39 | 4:27.33 | 6189 | 26246
3 | 5:49.72 | 1:49.59 | 26247 | 34480
4 | 7:39.56 | 7:30.13 | 34481 | 68243
5 | 15:09.69 | 0:50.35 | 68244 | 72028
6 | 16:00.29 | 2:21.64 | 72029 | 82667
7 | 18:22.18 | 1:14.66 | 82668 | 88283
8 | 19:37.09 | 5:16.12 | 88284 | 111995
9 | 24:53.21 | 1:09.67 | 111996 | 117237
10 | 26:03.13 | 3:26.20 | 117238 | 132707
11 | 29:29.33 | 4:02.58 | 132708 | 150915
12 | 33:32.16 | 1:26.60 | 150916 | 157425
13 | 34:59.01 | 4:25.15 | 157426 | 177315
14 | 39:24.16 | 2:56.41 | 177316 | 190556
15 | 42:20.57 | 4:51.56 | 190557 | 212437
16 | 47:12.38 | 2:32.15 | 212438 | 223852
Range status and errors
Selected range
Filename C:\Users\Igor\Music\eac\Jamie Saft - A Bag of Shells.wav
Peak level 96.6 %
Range quality 100.0 %
Test CRC C6258C34
Copy CRC C6258C34
Copy OK
No errors occurred
AccurateRip summary
Track 1 not present in database
Track 2 not present in database
Track 3 not present in database
Track 4 not present in database
Track 5 not present in database
Track 6 not present in database
Track 7 not present in database
Track 8 not present in database
Track 9 not present in database
Track 10 not present in database
Track 11 not present in database
Track 12 not present in database
Track 13 not present in database
Track 14 not present in database
Track 15 not present in database
Track 16 not present in database
None of the tracks are present in the AccurateRip database
End of status report

рип собственный
По всем вопросам пишите личное сообщение пользователю M0p94ok.
20:56
147
Нет комментариев. Ваш будет первым!