Вы используете незарегистрированную версию компонента "Вкладки"!

Поиск

(jazz, avant-garde) Dewey Redman & Ed Blackwell - Red and Black in Willisau [1980], FLAC (tracks+.cue), lossless

(jazz, avant-garde) Dewey Redman & Ed Blackwell - Red and Black in Willisau [1980], FLAC (tracks+.cue), lossless
Треклист:


Dewey Redman & Ed Blackwell - Red and Black in Willisau
Жанр: jazz, avante-garde
Год выпуска: 1980
Формат: FLAC (tracks+.cue)
Битрейт аудио: lossless
Продолжительность
Источник: ed2k
Ed Blackwell - Drums
Dewey Redman - Tenor

tracks

1. Willisee 14:24
2. We Hope 9:43
3. F1 not rated 2:09
4. Communication 13:58
5. S 126 T 7:14
47:28


 
.log
X Lossless Decoder version 20100123 (115.4)
XLD extraction logfile from 2010-02-02 20:25:46 -0800
Redman/Blackwell / Red & Black In Willisau
Used drive : OPTIARC DVD RW AD-5680H (revision 3AHB)
Use cdparanoia mode : YES (CDParanoia III 10.2 engine)
Disable audio cache : OK for the drive with cache less than 2750KB
Make use of C2 pointers : NO
Read offset correction : 48
Max retry count : 100
TOC of the extracted CD
Track | Start | Length | Start sector | End sector
---------------------------------------------------------
1 | 00:00:00 | 14:24:33 | 0 | 64832
2 | 14:24:33 | 09:43:57 | 64833 | 108614
3 | 24:08:15 | 02:09:25 | 108615 | 118314
4 | 26:17:40 | 13:58:40 | 118315 | 181204
5 | 40:16:05 | 07:15:28 | 181205 | 213857
Track 01
Filename : /Users/micahgilbert/Music/iTunes/iTunes Media/Music/Dewey Redman and Ed Blackwell/Red and Black in Willsau flac/01 - Willisee.flac
Pre-gap length : 00:02:00
CRC32 hash (test run) : EF86C721
CRC32 hash : EF86C721
CRC32 hash (skip zero) : 1543019E
AccurateRip signature : 5382FCAD
->Track not present in AccurateRip database.
Statistics
Read error : 0
Skipped (treated as error) : 0
Edge jitter error (maybe fixed) : 0
Atom jitter error (maybe fixed) : 0
Drift error (maybe fixed) : 0
Dropped bytes error (maybe fixed) : 0
Duplicated bytes error (maybe fixed) : 0
Inconsistency in error sectors : 0
Track 02
Filename : /Users/micahgilbert/Music/iTunes/iTunes Media/Music/Dewey Redman and Ed Blackwell/Red and Black in Willsau flac/02 - We Hope.flac
CRC32 hash (test run) : 6AF843C0
CRC32 hash : 6AF843C0
CRC32 hash (skip zero) : 469ACCB0
AccurateRip signature : B12C23AC
->Track not present in AccurateRip database.
Statistics
Read error : 0
Skipped (treated as error) : 0
Edge jitter error (maybe fixed) : 0
Atom jitter error (maybe fixed) : 0
Drift error (maybe fixed) : 0
Dropped bytes error (maybe fixed) : 0
Duplicated bytes error (maybe fixed) : 0
Inconsistency in error sectors : 0
Track 03
Filename : /Users/micahgilbert/Music/iTunes/iTunes Media/Music/Dewey Redman and Ed Blackwell/Red and Black in Willsau flac/03 - F I.flac
CRC32 hash (test run) : AD9A6096
CRC32 hash : AD9A6096
CRC32 hash (skip zero) : 118D130E
AccurateRip signature : 95C19CE3
->Track not present in AccurateRip database.
Statistics
Read error : 0
Skipped (treated as error) : 0
Edge jitter error (maybe fixed) : 0
Atom jitter error (maybe fixed) : 0
Drift error (maybe fixed) : 0
Dropped bytes error (maybe fixed) : 0
Duplicated bytes error (maybe fixed) : 0
Inconsistency in error sectors : 0
Track 04
Filename : /Users/micahgilbert/Music/iTunes/iTunes Media/Music/Dewey Redman and Ed Blackwell/Red and Black in Willsau flac/04 - Communication.flac
CRC32 hash (test run) : 76378806
CRC32 hash : 76378806
CRC32 hash (skip zero) : 81B408B3
AccurateRip signature : 8BBCD919
->Track not present in AccurateRip database.
Statistics
Read error : 0
Skipped (treated as error) : 0
Edge jitter error (maybe fixed) : 0
Atom jitter error (maybe fixed) : 0
Drift error (maybe fixed) : 0
Dropped bytes error (maybe fixed) : 0
Duplicated bytes error (maybe fixed) : 0
Inconsistency in error sectors : 0
Track 05
Filename : /Users/micahgilbert/Music/iTunes/iTunes Media/Music/Dewey Redman and Ed Blackwell/Red and Black in Willsau flac/05 - S126 T.flac
CRC32 hash (test run) : C938BDB9
CRC32 hash : C938BDB9
CRC32 hash (skip zero) : 7AB18A3B
AccurateRip signature : 0B0A7205
->Track not present in AccurateRip database.
Statistics
Read error : 0
Skipped (treated as error) : 0
Edge jitter error (maybe fixed) : 0
Atom jitter error (maybe fixed) : 0
Drift error (maybe fixed) : 0
Dropped bytes error (maybe fixed) : 0
Duplicated bytes error (maybe fixed) : 0
Inconsistency in error sectors : 0
No errors occurred
End of status report
 
.cue
TITLE "Red & Black In Willisau"
PERFORMER "Redman/Blackwell"
REM GENRE "Jazz"
REM DATE 1980
FILE "01 - Willisee.wav" WAVE
TRACK 01 AUDIO
TITLE "Willisee"
INDEX 01 00:00:00
FILE "02 - We Hope.wav" WAVE
TRACK 02 AUDIO
TITLE "We Hope"
INDEX 01 00:00:00
FILE "03 - F I.wav" WAVE
TRACK 03 AUDIO
TITLE "F I"
INDEX 01 00:00:00
FILE "04 - Communication.wav" WAVE
TRACK 04 AUDIO
TITLE "Communication"
INDEX 01 00:00:00
FILE "05 - S126 T.wav" WAVE
TRACK 05 AUDIO
TITLE "S126 T"
INDEX 01 00:00:00

другие релизы
По всем вопросам пишите личное сообщение пользователю M0p94ok.
01:16
164
Нет комментариев. Ваш будет первым!