Вы используете незарегистрированную версию компонента "Вкладки"!

Поиск

(jazz, avant-garde) Dewey Redman - Tarik [1969], FLAC (tracks+.cue), lossless

(jazz, avant-garde) Dewey Redman - Tarik [1969], FLAC (tracks+.cue), lossless
Треклист:


Dewey Redman - Tarik
Жанр: jazz, avant-garde
Год выпуска: 1969
Формат: FLAC (tracks+.cue)
Битрейт аудио: lossless
Продолжительность
Источник: ed2k
Dewey Redman: Tenor Sax, Musette
Malachi Favors: Bass
Ed Blackwell: Drums
Recorded October 1st, 1969, Studio E.T.A., Paris, France

tracks

1. Tarik
2. Fo Io
3. Paris? Oui!
4. Lop-o-Lop
5. Related and Unrelated Vibrations


 
.log
X Lossless Decoder version 20100117 (115.3)
XLD extraction logfile from 2010-01-22 12:39:20 -0800
Dewey Redman / Tarik
Used drive : OPTIARC DVD RW AD-5680H (revision 3AHB)
Use cdparanoia mode : YES (CDParanoia III 10.2 engine)
Disable audio cache : OK for the drive with cache less than 2750KB
Make use of C2 pointers : NO
Read offset correction : 48
Max retry count : 100
TOC of the extracted CD
Track | Start | Length | Start sector | End sector
---------------------------------------------------------
1 | 00:00:00 | 04:45:57 | 0 | 21431
2 | 04:45:57 | 05:08:22 | 21432 | 44553
3 | 09:54:04 | 13:39:13 | 44554 | 105991
4 | 23:33:17 | 13:06:62 | 105992 | 165003
5 | 36:40:04 | 10:33:04 | 165004 | 212482
Track 01
Filename : /Users/micahgilbert/Music/iTunes/iTunes Media/Music/Dewey Redman/Tarik flac/01 - Tarik.flac
Pre-gap length : 00:02:00
CRC32 hash (test run) : FF0BBCD1
CRC32 hash : FF0BBCD1
CRC32 hash (skip zero) : F99F5D4E
AccurateRip signature : 7A95953E
->Track not present in AccurateRip database.
Statistics
Read error : 0
Skipped (treated as error) : 0
Edge jitter error (maybe fixed) : 0
Atom jitter error (maybe fixed) : 0
Drift error (maybe fixed) : 0
Dropped bytes error (maybe fixed) : 0
Duplicated bytes error (maybe fixed) : 0
Inconsistency in error sectors : 0
Track 02
Filename : /Users/micahgilbert/Music/iTunes/iTunes Media/Music/Dewey Redman/Tarik flac/02 - Fo Io.flac
CRC32 hash (test run) : 6AD7EBCF
CRC32 hash : 6AD7EBCF
CRC32 hash (skip zero) : 543BFCF1
AccurateRip signature : 5B126760
->Track not present in AccurateRip database.
Statistics
Read error : 0
Skipped (treated as error) : 0
Edge jitter error (maybe fixed) : 0
Atom jitter error (maybe fixed) : 0
Drift error (maybe fixed) : 0
Dropped bytes error (maybe fixed) : 0
Duplicated bytes error (maybe fixed) : 0
Inconsistency in error sectors : 0
Track 03
Filename : /Users/micahgilbert/Music/iTunes/iTunes Media/Music/Dewey Redman/Tarik flac/03 - Paris? Oui!.flac
CRC32 hash (test run) : 4870F5D2
CRC32 hash : 4870F5D2
CRC32 hash (skip zero) : 92904DA4
AccurateRip signature : 26EAEABB
->Track not present in AccurateRip database.
Statistics
Read error : 0
Skipped (treated as error) : 0
Edge jitter error (maybe fixed) : 0
Atom jitter error (maybe fixed) : 0
Drift error (maybe fixed) : 0
Dropped bytes error (maybe fixed) : 0
Duplicated bytes error (maybe fixed) : 0
Inconsistency in error sectors : 0
Track 04
Filename : /Users/micahgilbert/Music/iTunes/iTunes Media/Music/Dewey Redman/Tarik flac/04 - Lop-O-Lop.flac
CRC32 hash (test run) : 8EE75721
CRC32 hash : 8EE75721
CRC32 hash (skip zero) : FA02C553
AccurateRip signature : 4D9D9C6B
->Track not present in AccurateRip database.
Statistics
Read error : 0
Skipped (treated as error) : 0
Edge jitter error (maybe fixed) : 0
Atom jitter error (maybe fixed) : 0
Drift error (maybe fixed) : 0
Dropped bytes error (maybe fixed) : 0
Duplicated bytes error (maybe fixed) : 0
Inconsistency in error sectors : 0
Track 05
Filename : /Users/micahgilbert/Music/iTunes/iTunes Media/Music/Dewey Redman/Tarik flac/05 - Related & Unrelated Vibrations.flac
CRC32 hash (test run) : 4A430F3B
CRC32 hash : 4A430F3B
CRC32 hash (skip zero) : 90564470
AccurateRip signature : 6C6A682E
->Track not present in AccurateRip database.
Statistics
Read error : 0
Skipped (treated as error) : 0
Edge jitter error (maybe fixed) : 0
Atom jitter error (maybe fixed) : 0
Drift error (maybe fixed) : 0
Dropped bytes error (maybe fixed) : 0
Duplicated bytes error (maybe fixed) : 0
Inconsistency in error sectors : 0
No errors occurred
End of status report
 
.cue
TITLE "Tarik"
PERFORMER "Dewey Redman"
REM GENRE "Jazz"
REM DATE 1969
FILE "01 - Tarik.wav" WAVE
TRACK 01 AUDIO
TITLE "Tarik"
INDEX 01 00:00:00
FILE "02 - Fo Io.wav" WAVE
TRACK 02 AUDIO
TITLE "Fo Io"
INDEX 01 00:00:00
FILE "03 - Paris? Oui!.wav" WAVE
TRACK 03 AUDIO
TITLE "Paris? Oui!"
INDEX 01 00:00:00
FILE "04 - Lop-O-Lop.wav" WAVE
TRACK 04 AUDIO
TITLE "Lop-O-Lop"
INDEX 01 00:00:00
FILE "05 - Related & Unrelated Vibrations.wav" WAVE
TRACK 05 AUDIO
TITLE "Related & Unrelated Vibrations"
INDEX 01 00:00:00

другие релизы
По всем вопросам пишите личное сообщение пользователю M0p94ok.
01:15
203
Нет комментариев. Ваш будет первым!