Вы используете незарегистрированную версию компонента "Вкладки"!

Поиск

(jazz, avant-garde) Dewey Redman - Choices [1992], FLAC (tracks+.cue), lossless

(jazz, avant-garde) Dewey Redman - Choices [1992], FLAC (tracks+.cue), lossless
Треклист:


Dewey Redman - Choices
Жанр: jazz, avante-garde
Год выпуска: 1992
Формат: FLAC (tracks+.cue)
Битрейт аудио: lossless
Продолжительность
Источник: ed2k

tracks

1. Le Clit
2. Everything Happens To Me
3. O'Besso
4. Imagination
5. For Mo


 
.log
X Lossless Decoder version 20090320 (105.1)
XLD extraction logfile from 2009-05-05 17:50:09 -0700
Dewey Redman / Choices
Used drive : PIONEER DVD-RW DVR-112D (revision AC08)
Use cdparanoia mode : YES (CDParanoia III 10.2 engine)
Disable audio cache : OK for the drive with cache less than 2750KB
Make use of C2 pointers : NO
Read offset correction : 48
Max retry count : 100
TOC of the extracted CD
Track | Start | Length | Start sector | End sector
---------------------------------------------------------
1 | 00:00:00 | 09:09:25 | 0 | 41199
2 | 09:09:25 | 10:27:40 | 41200 | 88264
3 | 19:36:65 | 14:09:37 | 88265 | 151976
4 | 33:46:27 | 08:15:00 | 151977 | 189101
5 | 42:01:27 | 13:26:00 | 189102 | 249551
Track 01
Filename : /Volumes/drop/Choices/01 - Le Clit.flac
CRC32 hash (test run) : B75E720A
CRC32 hash : B75E720A
CRC32 hash (skip zero) : D8E1AD40
AccurateRip signature : DE44FB8D
->Track not present in AccurateRip database.
Statistics
Read error : 0
Skipped (treated as error) : 0
Edge jitter error (maybe fixed) : 0
Atom jitter error (maybe fixed) : 0
Drift error (maybe fixed) : 0
Dropped bytes error (maybe fixed) : 0
Duplicated bytes error (maybe fixed) : 0
Inconsistency in error sectors : 0
Track 02
Filename : /Volumes/drop/Choices/02 - Everything Happens To Me.flac
CRC32 hash (test run) : 64657080
CRC32 hash : 64657080
CRC32 hash (skip zero) : 34EDB7E6
AccurateRip signature : 4C2EF009
->Track not present in AccurateRip database.
Statistics
Read error : 0
Skipped (treated as error) : 0
Edge jitter error (maybe fixed) : 0
Atom jitter error (maybe fixed) : 0
Drift error (maybe fixed) : 0
Dropped bytes error (maybe fixed) : 0
Duplicated bytes error (maybe fixed) : 0
Inconsistency in error sectors : 0
Track 03
Filename : /Volumes/drop/Choices/03 - O Besso.flac
CRC32 hash (test run) : C3BDFD86
CRC32 hash : C3BDFD86
CRC32 hash (skip zero) : 201A4AF1
AccurateRip signature : 7525E934
->Track not present in AccurateRip database.
Statistics
Read error : 0
Skipped (treated as error) : 0
Edge jitter error (maybe fixed) : 0
Atom jitter error (maybe fixed) : 0
Drift error (maybe fixed) : 0
Dropped bytes error (maybe fixed) : 0
Duplicated bytes error (maybe fixed) : 0
Inconsistency in error sectors : 0
Track 04
Filename : /Volumes/drop/Choices/04 - Imagination.flac
CRC32 hash (test run) : 4F7BFE3F
CRC32 hash : 4F7BFE3F
CRC32 hash (skip zero) : 3ECBFD8E
AccurateRip signature : 931EE9E5
->Track not present in AccurateRip database.
Statistics
Read error : 0
Skipped (treated as error) : 0
Edge jitter error (maybe fixed) : 0
Atom jitter error (maybe fixed) : 0
Drift error (maybe fixed) : 0
Dropped bytes error (maybe fixed) : 0
Duplicated bytes error (maybe fixed) : 0
Inconsistency in error sectors : 0
Track 05
Filename : /Volumes/drop/Choices/05 - For Mo.flac
CRC32 hash (test run) : 6D630E3F
CRC32 hash : 6D630E3F
CRC32 hash (skip zero) : 765C0655
AccurateRip signature : C33E1FC4
->Track not present in AccurateRip database.
Statistics
Read error : 0
Skipped (treated as error) : 0
Edge jitter error (maybe fixed) : 0
Atom jitter error (maybe fixed) : 0
Drift error (maybe fixed) : 0
Dropped bytes error (maybe fixed) : 0
Duplicated bytes error (maybe fixed) : 0
Inconsistency in error sectors : 0
No errors occurred
End of status report
 
.cue
TITLE "Choices"
PERFORMER "Dewey Redman"
REM GENRE "Jazz"
REM DATE 1992
FILE "Choices/01 - Le Clit.wav" WAVE
TRACK 01 AUDIO
TITLE "Le Clit"
INDEX 01 00:00:00
TRACK 02 AUDIO
TITLE "Everything Happens To Me"
INDEX 00 08:59:27
FILE "Choices/02 - Everything Happens To Me.wav" WAVE
INDEX 01 00:00:00
TRACK 03 AUDIO
TITLE "O Besso"
INDEX 00 10:17:40
FILE "Choices/03 - O Besso.wav" WAVE
INDEX 01 00:00:00
TRACK 04 AUDIO
TITLE "Imagination"
INDEX 00 14:05:40
FILE "Choices/04 - Imagination.wav" WAVE
INDEX 01 00:00:00
TRACK 05 AUDIO
TITLE "For Mo"
INDEX 00 08:08:33
FILE "Choices/05 - For Mo.wav" WAVE
INDEX 01 00:00:00

другие релизы
Any questions -> support@pro-jazz.com. По всем вопросам пишите -> support@pro-jazz.com
01:17
184
Нет комментариев. Ваш будет первым!