Вы используете незарегистрированную версию компонента "Вкладки"!

Поиск

(Jazz / Avant-Garde) Alvin Curran & The Rova Saxophone Quartet - Electric rags II - 1990, APE (image+.cue), lossless

Треклист:
Alvin Curran & The Rova Saxophone Quartet - Electric rags II
Жанр: Jazz / Avangarde
Год выпуска диска: 1990
Производитель диска: USA
Аудио кодек: APE
Тип рипа: image+.cue
Битрейт аудио: lossless
Продолжительность: 65.59
Трэклист:
1 Wonder Bread 11:49
2 Z Train 2:58
3 Little Him - Lo Main 2:43
4 Harmony Circus 8:42
5 Scusami, I Walk Alone 2:40
6 For Giacinto 3:04
7 Field It 11:29
8 Cords Of Would 3:03
9 Others Brothers 11:42
10 One And Amino Acids When In But Out But 7:47

Electronics - Alvin Curran
Saxophone [Alto, Sopranino] - Steve Adams
Saxophone [Baritone, Alto] - Jon Raskin
Saxophone [Soprano] - Bruce Ackley
Saxophone [Tenor, Sopranino] - Larry Ochs
 
EAC
Exact Audio Copy V0.99 prebeta 3 from 28. July 2007
EAC extraction logfile from 21. January 2008, 17:48
Alvin Curran / Electric rags II
Used drive : SAMSUNG DVD-ROM SD-616E Adapter: 1 ID: 0
Read mode : Secure
Utilize accurate stream : Yes
Defeat audio cache : No
Make use of C2 pointers : Yes
Combined read/write offset correction : 0
Overread into Lead-In and Lead-Out : No
Fill up missing offset samples with silence : Yes
Delete leading and trailing silent blocks : No
Null samples used in CRC calculations : No
Used interface : Native Win32 interface for Win NT & 2000
Used output format : Internal WAV Routines
Sample format : 44.100 Hz; 16 Bit; Stereo
TOC of the extracted CD
Track | Start | Length | Start sector | End sector
---------------------------------------------------------
1 | 0:00.32 | 11:50.13 | 32 | 53294
2 | 11:50.45 | 2:56.17 | 53295 | 66511
3 | 14:46.62 | 2:43.58 | 66512 | 78794
4 | 17:30.45 | 8:42.07 | 78795 | 117951
5 | 26:12.52 | 2:40.38 | 117952 | 129989
6 | 28:53.15 | 3:03.62 | 129990 | 143776
7 | 31:57.02 | 11:30.43 | 143777 | 195569
8 | 43:27.45 | 3:02.32 | 195570 | 209251
9 | 46:30.02 | 11:42.73 | 209252 | 261974
10 | 58:13.00 | 7:46.05 | 261975 | 296929
Range status and errors
Selected range
Filename G:\Muziek\CD's\Alvin Curran - Electric rags II\Alvin Curran - Electric rags II.wav
Peak level 58.3 %
Range quality 100.0 %
Copy CRC 47ABB9CF
Copy OK
No errors occurred
End of status report
Источник eD2k
По всем вопросам пишите личное сообщение пользователю M0p94ok.
15:37
156
Нет комментариев. Ваш будет первым!