Вы используете незарегистрированную версию компонента "Вкладки"!

Поиск

(Avant-garde jazz) Tim Berne - Science Friction - 2002, APE (image+.cue), lossless

Треклист:
Tim Berne - Science Friction
Жанр: Avant-garde jazz
Год выпуска диска: 2002
Аудио кодек: APE
Тип рипа: image+.cue
Log:
 
скрытый текст
Exact Audio Copy V0.99 prebeta 4 from 23. January 2008
Отчёт EAC об извлечении, выполненном 24. октября 2009, 1:14
Tim Berne / Science Friction
Дисковод: Optiarc DVD RW AD-7200S Adapter: 4 ID: 0
Режим чтения : Достоверность
Использование точного потока : Да
Отключение кэша аудио : Да
Использование указателей C2 : Нет
Коррекция смещения при чтении : 48
Способность читать области Lead-in и Lead-out : Нет
Заполнение пропущенных сэмплов тишиной : Да
Удаление блоков с тишиной в начале и конце : Нет
При вычислениях CRC использовались нулевые сэмплы : Да
Интерфейс : Встроенный Win32-интерфейс для Win NT/2000
Выходной формат : Внутренние WAV-операции
Формат сэмплов : 44.100 Гц; 16 бит; стерео
TOC извлечённого CD
Трек | Старт | Длительность | Начальный сектор | Конечный сектор
---------------------------------------------------------------------
1 | 0:00.00 | 6:27.18 | 0 | 29042
2 | 6:27.18 | 3:27.19 | 29043 | 44586
3 | 9:54.37 | 9:50.17 | 44587 | 88853
4 | 19:44.54 | 12:20.20 | 88854 | 144373
5 | 32:04.74 | 2:03.14 | 144374 | 153612
6 | 34:08.13 | 5:20.42 | 153613 | 177654
7 | 39:28.55 | 1:04.26 | 177655 | 182480
8 | 40:33.06 | 11:31.24 | 182481 | 234329
Характеристики диапазона извлечения и сообщения об ошибках
Выбранный диапазон
Имя файла D:\Music internet\Раздачи\Tim Berne\Tim Berne - Science Friction\Tim Berne - Science Friction.wav
Пиковый уровень 95.8 %
Качество диапазона 99.9 %
CRC копии 6ECE583D
Копирование... OK
Ошибок не произошло
AccurateRip: сводка
Трек 1 нет в базе данных
Трек 2 нет в базе данных
Трек 3 нет в базе данных
Трек 4 нет в базе данных
Трек 5 нет в базе данных
Трек 6 нет в базе данных
Трек 7 нет в базе данных
Трек 8 нет в базе данных
Ни одного трека нет в базе AccurateRip
Конец отчёта
Трэклист:
1 Huevos 6:27
2 iHornet 3:27
3 Sigh Fry 9:50
4 Manatee Woman 12:20
5 Mikromaus 2:03
6 Jalapeño Diplomacy 5:20
7 The Mallomar Maneuvre 1:04
8 Clown Finger 11:31
Доп. информация:
Tim Berne Composer, Sax (Alto)
Marc Ducret Guitar (Acoustic), Composer, Guitar (Electric)
Tom Rainey Drums
Craig Taborn Keyboards
Any questions -> support@pro-jazz.com. По всем вопросам пишите -> support@pro-jazz.com
15:37
126
Нет комментариев. Ваш будет первым!