Вы используете незарегистрированную версию компонента "Вкладки"!

Поиск

(Avant-garde jazz) Shoup, Burns, Radding, Campbell - The Levitation Shuffle - 2007, APE (image+.cue), lossless

Треклист:
Shoup, Burns, Radding, Campbell - The Levitation Shuffle
Жанр: Avant-garde jazz
Год выпуска диска: 2007
Аудио кодек: APE
Log:
 
скрытый текст
Exact Audio Copy V0.99 prebeta 4 from 23. January 2008
Отчёт EAC об извлечении, выполненном 18. октября 2009, 17:26
Wally Shoup, Gust Burns, Reuben Radding, Greg Campbell / The Levitation Shuffle
Дисковод: Optiarc DVD RW AD-7200S Adapter: 4 ID: 0
Режим чтения : Достоверность
Использование точного потока : Да
Отключение кэша аудио : Да
Использование указателей C2 : Нет
Коррекция смещения при чтении : 48
Способность читать области Lead-in и Lead-out : Нет
Заполнение пропущенных сэмплов тишиной : Да
Удаление блоков с тишиной в начале и конце : Нет
При вычислениях CRC использовались нулевые сэмплы : Да
Интерфейс : Встроенный Win32-интерфейс для Win NT/2000
Выходной формат : Внутренние WAV-операции
Формат сэмплов : 44.100 Гц; 16 бит; стерео
TOC извлечённого CD
Трек | Старт | Длительность | Начальный сектор | Конечный сектор
---------------------------------------------------------------------
1 | 0:00.00 | 5:50.66 | 0 | 26315
2 | 5:50.66 | 11:11.57 | 26316 | 76697
3 | 17:02.48 | 5:43.69 | 76698 | 102491
4 | 22:46.42 | 5:04.74 | 102492 | 125365
5 | 27:51.41 | 12:03.22 | 125366 | 179612
6 | 39:54.63 | 6:52.16 | 179613 | 210528
7 | 46:47.04 | 9:30.60 | 210529 | 253338
Характеристики диапазона извлечения и сообщения об ошибках
Выбранный диапазон
Имя файла D:\Music internet\Раздачи\Wally Shoup\Wally Shoup, Gust Burns, Reuben Radding, Greg Campbell - The Levitation Shuffle\Wally Shoup, Gust Burns, Reuben Radding, Greg Campbell - The Levitation Shuffle.wav
Пиковый уровень 99.4 %
Качество диапазона 100.0 %
CRC копии DCF53F13
Копирование... OK
Ошибок не произошло
AccurateRip: сводка
Трек 1 точное извлечение (доверие 1) [1783D4FA]
Трек 2 точное извлечение (доверие 1) [028F7133]
Трек 3 точное извлечение (доверие 1) [4731925C]
Трек 4 точное извлечение (доверие 1) [B0170542]
Трек 5 точное извлечение (доверие 1) [DFEE0536]
Трек 6 точное извлечение (доверие 1) [11991CB0]
Трек 7 точное извлечение (доверие 1) [AB68866F]
Все треки извлечены точно
Конец отчёта
Трэклист:
1 Heraldic Quadraphony 5:50
2 Meta-Morphed 11:11
3 Caressing the Cube 5:43
4 Meson Masons 5:04
5 Fins 'N' Hoodoos 12:03
6 Stacatto Flue 6:52
7 Arching the Energy Puzzle 9:30
Доп. информация:
Gust Burns Piano
Gregory Campbell Percussion, Drums
Reuben Radding Bass
Wally Shoup Sax (Alto)
По всем вопросам пишите личное сообщение пользователю M0p94ok.
15:36
172
Нет комментариев. Ваш будет первым!