Поиск

(Jazz) Art Ensemble of Chicago - Urban Bushmen - 1982, FLAC (image + .cue), lossless

(Jazz) Art Ensemble of Chicago - Urban Bushmen - 1982, FLAC (image + .cue), lossless
Треклист:
Art Ensemble of Chicago - Urban Bushmen
По-моему это гениальный альбом.
Страна: USA
Жанр: Jazz
Год выпуска: 1982
Формат: FLAC (image + .cue)
Битрейт аудио: lossless
Продолжительность: 1:32:50
Lester Bowie trumpet, bass drum, long horn, vocals
Joseph Jarman saxophones, vocals, clarinets, bassoon, flutes, percussion
Roscoe Mitchell saxophones, flute, percussion, clarinet, vocals
Malachi Favors Maghostus bass, percussion, melodica, vocals
Famoudou Don Moye sun percussion, vocals
"Promenade: Cote Bamako I
Bush Magic
Urban Magic
Sun Precondition Two; Theme For Sco
New York Is Full Of Lonely People
Ancestral Meditation
Uncle
Peter And Judith
Promenade: Cote Bamako II
Odwalla, Theme"
Recorded May 1980
ECM 1211
 
EAC Report Disc 1
Exact Audio Copy V0.99 prebeta 4 from 23. January 2008
EAC extraction logfile from 16. March 2008, 20:12
Art Ensemble of Chicago / Urban Bushmen (Disc 1)
Used drive : MATSHITADVD-RAM UJ-840S Adapter: 1 ID: 0
Read mode : Secure
Utilize accurate stream : Yes
Defeat audio cache : Yes
Make use of C2 pointers : No
Read offset correction : 102
Overread into Lead-In and Lead-Out : No
Fill up missing offset samples with silence : Yes
Delete leading and trailing silent blocks : No
Null samples used in CRC calculations : No
Used interface : Installed external ASPI interface
Used output format : User Defined Encoder
Selected bitrate : 1024 kBit/s
Quality : High
Add ID3 tag : No
Command line compressor : C:\Program Files\Exact Audio Copy\FLAC\FLAC.EXE
Additional command line options : -6 -V -T "ARTIST=%a" -T "TITLE=%t" -T "ALBUM=%g" -T "DATE=%y" -T "TRACKNUMBER=%n" -T "GENRE=%m" -T "COMMENT=%e" %s -o %d
TOC of the extracted CD
Track | Start | Length | Start sector | End sector
---------------------------------------------------------
1 | 0:00.32 | 4:11.43 | 32 | 18899
2 | 4:12.00 | 5:05.70 | 18900 | 41844
3 | 9:17.70 | 15:45.02 | 41845 | 112721
4 | 25:02.72 | 21:53.10 | 112722 | 211206
Range status and errors
Selected range
Filename F:\u\Art Ensemble of Chicago\Art Ensemble of Chicago - Urban Bushmen (1982)\Disc 1\Art Ensemble of Chicago - Urban Bushmen (Disc 1).wav
Peak level 86.7 %
Range quality 100.0 %
Copy CRC 75FE1F34
Copy OK
No errors occurred
AccurateRip summary
Track 1 cannot be verified as accurate (confidence 3) [C15609F0], AccurateRip returned [68A4C9C8]
Track 2 cannot be verified as accurate (confidence 3) [6CC47CB7], AccurateRip returned [FA4798ED]
Track 3 cannot be verified as accurate (confidence 3) [4C479013], AccurateRip returned [FF7A8535]
Track 4 cannot be verified as accurate (confidence 3) [C5027440], AccurateRip returned [7593CDBA]
No tracks could be verified as accurate
You may have a different pressing from the one(s) in the database
End of status report
 
EAC Report Disc 2
Exact Audio Copy V0.99 prebeta 4 from 23. January 2008
EAC extraction logfile from 16. March 2008, 19:57
Art Ensemble of Chicago / Urban Bushmen (Disc 2)
Used drive : MATSHITADVD-RAM UJ-840S Adapter: 1 ID: 0
Read mode : Secure
Utilize accurate stream : Yes
Defeat audio cache : Yes
Make use of C2 pointers : No
Read offset correction : 102
Overread into Lead-In and Lead-Out : No
Fill up missing offset samples with silence : Yes
Delete leading and trailing silent blocks : No
Null samples used in CRC calculations : No
Used interface : Installed external ASPI interface
Used output format : User Defined Encoder
Selected bitrate : 1024 kBit/s
Quality : High
Add ID3 tag : No
Command line compressor : C:\Program Files\Exact Audio Copy\FLAC\FLAC.EXE
Additional command line options : -6 -V -T "ARTIST=%a" -T "TITLE=%t" -T "ALBUM=%g" -T "DATE=%y" -T "TRACKNUMBER=%n" -T "GENRE=%m" -T "COMMENT=%e" %s -o %d
TOC of the extracted CD
Track | Start | Length | Start sector | End sector
---------------------------------------------------------
1 | 0:00.32 | 7:37.23 | 32 | 34329
2 | 7:37.55 | 6:56.65 | 34330 | 65594
3 | 14:34.45 | 17:29.10 | 65595 | 144279
4 | 32:03.55 | 2:39.07 | 144280 | 156211
5 | 34:42.62 | 5:57.03 | 156212 | 182989
6 | 40:39.65 | 5:14.17 | 182990 | 206556
Range status and errors
Selected range
Filename F:\u\Art Ensemble of Chicago\Art Ensemble of Chicago - Urban Bushmen (Disc 2).wav
Peak level 84.6 %
Range quality 100.0 %
Copy CRC 2B5B2DF3
Copy OK
No errors occurred
AccurateRip summary
Track 1 not present in database
Track 2 not present in database
Track 3 not present in database
Track 4 not present in database
Track 5 not present in database
Track 6 not present in database
None of the tracks are present in the AccurateRip database
End of status report
Приватный:
Нет (DHT включён)
Размер:
522.15 Мб (547,512,835 байт) » файлов: 10
Участники:
0 раздают, 0 качают (0 участников всего)
Внешние участники:
3 раздают, 1 качают (4 участников всего) [ Обновить ]
Есть вопросы - пишите личное сообщение пользователю M0p94ok.
00:04
45
Нет комментариев. Ваш будет первым!