Поиск

(free-jazz/jazzcore/noise-rock) The Flying Luttenbachers - Retrospertiw IV - 2002, FLAC (image + .cue), lossless

Треклист:
The Flying Luttenbachers - Retrospektiw IV
Жанр: free-jazz/jazzcore/noise-rock
Год выпуска: 2002
Формат: FLAC (image + .cue)
Битрейт аудио: lossless
Продолжительность: 1:13:06
Трэклист:
1. High Fidelity Improvisation 1:07
2. You Oughta Know 2:19
3. Hand in My Pocket 3:22
4. No Transistor 3:40
5. Demonic Velocities 3:46
6. Into the Vastness of Stupidity 6:06
7. Night of the Leeches 3:42
8. Number Two 3:30
9. Spasms 3:16
10. The Shriek Continues 2:32
11. The Importance of Discomfort 6:38
12. Dance of the Lonely Hyenas 6:57
13. Utz - the Sound of Shame 7:26
14. Agony 4:38
15. The Fishook and the Eyeball 8:29
16. Last Blast Before the Root Canal 5:29
 
Отчет ЕАС
Exact Audio Copy V0.99 prebeta 3 from 28. July 2007
Отчёт EAC об извлечении, выполненном 16. марта 2008, 16:17
Retrospektiw IV / The Flying Luttenbachers
Дисковод: HL-DT-STDVDRAM GSA-4167B Adapter: 1 ID: 0
Режим чтения : Достоверность
Использование точного потока : Да
Отключение кэша аудио : Да
Использование указателей C2 : Нет
Коррекция смещения при чтении : 667
Способность читать области Lead-in и Lead-out : Нет
Заполнение пропущенных сэмплов тишиной : Да
Удаление блоков с тишиной в начале и конце : Нет
При вычислениях CRC использовались нулевые сэмплы : Да
Интерфейс : Встроенный Win32-интерфейс для Win NT/2000
Выходной формат : Внутренние WAV-операции
Формат сэмплов : 44.100 Гц; 16 бит; стерео
Смещение при сжатии : 0
TOC извлечённого CD
Трек | Старт | Длительность | Начальный сектор | Конечный сектор
---------------------------------------------------------------------
1 | 0:00.00 | 1:07.70 | 0 | 5094
2 | 1:07.70 | 2:19.50 | 5095 | 15569
3 | 3:27.45 | 3:22.60 | 15570 | 30779
4 | 6:50.30 | 3:40.32 | 30780 | 47311
5 | 10:30.62 | 3:46.71 | 47312 | 64332
6 | 14:17.58 | 6:06.52 | 64333 | 91834
7 | 20:24.35 | 3:42.27 | 91835 | 108511
8 | 24:06.62 | 3:30.66 | 108512 | 124327
9 | 27:37.53 | 3:16.43 | 124328 | 139070
10 | 30:54.21 | 2:32.35 | 139071 | 150505
11 | 33:26.56 | 6:38.43 | 150506 | 180398
12 | 40:05.24 | 6:57.51 | 180399 | 211724
13 | 47:03.00 | 7:26.10 | 211725 | 245184
14 | 54:29.10 | 4:38.35 | 245185 | 266069
15 | 59:07.45 | 8:29.14 | 266070 | 304258
16 | 67:36.59 | 5:29.63 | 304259 | 328996
Характеристики диапазона извлечения и сообщения об ошибках
Выбранный диапазон
Имя файла G:\The Flying Luttenbachers\Retrospektiw IV - The Flying Luttenbachers.wav
Пиковый уровень 100.0 %
Качество диапазона 100.0 %
CRC копии 9B21D819
Копирование... OK
Ошибок не произошло
Конец отчёта
 
Tau Analyzer
Доп. информация:
Bass - William Pisarri (tracks: 1 to 6, 8, 9) , Kurt Johnson (tracks: 10)
Cello - Fred Lonberg-Holm (tracks: 10, 12 to 16)
Clarinet - William Pisarri (tracks: 2, 3)
Double Bass [Contrabass] - Kurt Johnson (tracks: 11 to 16)
Drums - Adris Hoyos (tracks: 7) , Weasel Walter
Guitar - Chuck Falzone (tracks: 1 to 6, 8, 9)
Producer - Weasel Walter
Reeds - Michael Colligan (tracks: 10 to 16)
Saxophone - Weasel Walter (tracks: 2, 3, 7)
Synthesizer - Azita Youssefi (tracks: 2, 3)
Violin - Julie Pomerleau (tracks: 10)
Неизданные до этого студийные и концертные записи разных составов The Flying Luttenbachers 1996-2000 годов. Треки 10-16 записаны тем же составом, что и Alptraum (2000).
Еще информация и сканы
Приватный:
Нет (DHT включён)
Размер:
508.44 Мб (533,137,747 байт) » файлов: 3
Участники:
0 раздают, 0 качают (0 участников всего)
Внешние участники:
5 раздают, 1 качают (6 участников всего) [ Обновить ]
Есть вопросы - пишите личное сообщение пользователю M0p94ok.
00:03
57
Нет комментариев. Ваш будет первым!