Поиск

(Contemporary Jazz, Avant-Garde) Michael Shrieve - Two Doors {CMP} - 1995, FLAC (image + .cue), lossless

(Contemporary Jazz, Avant-Garde) Michael Shrieve - Two Doors {CMP} - 1995, FLAC (image + .cue), lossless
Треклист:
Michael Shrieve
Two Doors (In the Palace of Dreams)


Страна: Germany
Жанр: Contemporary Jazz, Avant-Garde
Год выпуска: 1995
Формат: FLAC (image + .cue)
Битрейт аудио: lossless
Продолжительность: 77:09
DEEP UMBRA
1. Stellar Rays (J.Hellborg / S.Lane) 3:21
2. Deep Umbra (J.Hellborg / S.Lane) 4:39
3. Sorcerer (M.Shrieve / J.Hellborg / S.Lane) 3:29
4. Baraji (J.Hellborg / S.Lane) 6:04
5. Caress of Lillith (J.Hellborg / S.Lane) 4:18
6. The Smiling Tarshishm (M.Shrieve) 3:59
7. Juvalamu (J.Hellborg / S.Lane) 5:15
8. Palace of Dreams (J.Hellborg / S.Lane) 5:57
Michael Shrieve: drums
Shawn Lane: guitar, voice
Jonas Hellborg: bass
Recorded by Cedric Beatty at Ztudio Zerkall, Germany, May 1995
Mixed by Walter Quintus
Produced by Kurt Renker & Michael Shrieve
FLYING POLLY
9. Locomotion (M.Shrieve) 1:55
10. Data Trash (M.Shrieve / B.Frisell) 0:55
11. Stella (M.Shrieve / B.Frisell / W.Horvitz) 7:17
12. Your Saviour (C.Cornell) 1:48
13. Pipeline (M.Shrieve / B.Frisell) 0:46
14. Crocodile (M.Shrieve / B.Frisell / W.Horvitz) 4:21
15. Lincoln Logs (M.Shrieve / B.Frisell / W.Horvitz) 2:53
16. First Train (M.Shrieve / B.Frisell) 0:37
17. Queen Bee (M.Shrieve / B.Frisell / W.Horvitz) 12:04
18. Flying Polly (M.Shrieve / B.Frisell / W.Horvitz) 1:51
19. Stella (Reprise) (M.Shrieve / B.Frisell / W.Horvitz) 5:02
Michael Shrieve: drums
Bill Frisell: guitar
Wayne Horvitz: organ
Recorded by Don Gilmore at Bob Lang Studios, Seattle, Nov. 1993
Mixed by Walter Quintus at Ztudio Zerkall, Germany
Produced by Kurt Renker
(c)(p) 1995 CMP Records
CMP CD 74
 
EAC extraction logfile from 11. March 2008, 22:09
Exact Audio Copy V0.99 prebeta 4 from 23. January 2008
EAC extraction logfile from 11. March 2008, 22:09
Michael Shrieve / Two Doors
Used drive : PIONEER DVD-RW DVR-212D Adapter: 3 ID: 0
Read mode : Secure
Utilize accurate stream : Yes
Defeat audio cache : Yes
Make use of C2 pointers : No
Read offset correction : 48
Overread into Lead-In and Lead-Out : No
Fill up missing offset samples with silence : Yes
Delete leading and trailing silent blocks : No
Null samples used in CRC calculations : No
Used interface : Native Win32 interface for Win NT & 2000
Used output format : Internal WAV Routines
Sample format : 44.100 Hz; 16 Bit; Stereo
TOC of the extracted CD
Track | Start | Length | Start sector | End sector
---------------------------------------------------------
1 | 0:00.00 | 3:23.00 | 0 | 15224
2 | 3:23.00 | 4:41.50 | 15225 | 36349
3 | 8:04.50 | 3:30.10 | 36350 | 52109
4 | 11:34.60 | 6:05.35 | 52110 | 79519
5 | 17:40.20 | 4:18.25 | 79520 | 98894
6 | 21:58.45 | 4:00.00 | 98895 | 116894
7 | 25:58.45 | 5:15.02 | 116895 | 140521
8 | 31:13.47 | 6:03.53 | 140522 | 167799
9 | 37:17.25 | 1:55.67 | 167800 | 176491
10 | 39:13.17 | 0:56.43 | 176492 | 180734
11 | 40:09.60 | 7:18.20 | 180735 | 213604
12 | 47:28.05 | 1:48.32 | 213605 | 221736
13 | 49:16.37 | 0:46.65 | 221737 | 225251
14 | 50:03.27 | 4:21.50 | 225252 | 244876
15 | 54:25.02 | 3:06.63 | 244877 | 258889
16 | 57:31.65 | 0:37.12 | 258890 | 261676
17 | 58:09.02 | 12:04.50 | 261677 | 316026
18 | 70:13.52 | 1:52.50 | 316027 | 324476
19 | 72:06.27 | 5:02.53 | 324477 | 347179
Range status and errors
Selected range
Filename H:\Michael Shrieve - Two Doors.wav
Peak level 99.9 %
Range quality 100.0 %
Copy CRC 264FC478
Copy OK
No errors occurred
AccurateRip summary
Track 1 accurately ripped (confidence 2) [18A31D1F]
Track 2 accurately ripped (confidence 2) [800D6F0E]
Track 3 accurately ripped (confidence 2) [EA6552B3]
Track 4 accurately ripped (confidence 2) [6A3AB47A]
Track 5 accurately ripped (confidence 2) [B84F0A8E]
Track 6 accurately ripped (confidence 2) [D120076A]
Track 7 accurately ripped (confidence 2) [E276319E]
Track 8 accurately ripped (confidence 2) [3053C6C3]
Track 9 accurately ripped (confidence 2) [98D42174]
Track 10 accurately ripped (confidence 2) [D41018E3]
Track 11 accurately ripped (confidence 2) [83526BBE]
Track 12 accurately ripped (confidence 2) [3DEF5411]
Track 13 accurately ripped (confidence 2) [10501227]
Track 14 accurately ripped (confidence 2) [B217B3BE]
Track 15 accurately ripped (confidence 2) [68D61DA6]
Track 16 accurately ripped (confidence 2) [76739691]
Track 17 accurately ripped (confidence 2) [D9E952B7]
Track 18 accurately ripped (confidence 2) [38E3A65F]
Track 19 accurately ripped (confidence 2) [E4E6EBAB]
All tracks accurately ripped
End of status report
Собственный рип с оригинального диска.
В комплекте полный набор сканов PNG/300dpi.
Приватный:
Нет (DHT включён)
Размер:
464.94 Мб (487,525,019 байт) » файлов: 6
Участники:
0 раздают, 0 качают (0 участников всего)
Внешние участники:
3 раздают, 1 качают (4 участников всего) [ Обновить ]
Есть вопросы - пишите личное сообщение пользователю M0p94ok.
00:04
51
Нет комментариев. Ваш будет первым!