Поиск

(Jazz) Art Ensemble of Chicago: DIW Period 1986-92, FLAC (image + .cue), lossless

(Jazz) Art Ensemble of Chicago: DIW Period 1986-92, FLAC (image + .cue), lossless
Треклист:
Art Ensemble of Chicago: DIW Period 1986-92

Страна: USA
Жанр: Jazz
Формат: FLAC (image + .cue)
Битрейт аудио: lossless
 
Немного по-английски
DIW is a Japanese record label which beginning in 1986, produced a series of recording of the Chicago band.
The Dreaming of the Masters, with its particular adaptation of music by Hendrix, Redding, Fela Kuti and Bob Marley, was the first work done with the Japanese and marked a moment of change in the output of the AEoC, not least because the long-playing record was giving way to CD.
The change became even more evident with the following CD, Art Ensemble of Soweto, recorded in collaboration with the South African vocal group Amabutho Male Chorus. The union of the two groups proved interesting above all in concert, because the live performances evolved differently and had a greater impact than studio-based project.
The Art Ensemble and Amabutho, toured Europe on various occasions between 1990 and 1991, accompanied at times by Brass Fantasy. Public response was strong and enthusiastic. The next CD with Amabutho was America-South Africa, released in 1992 though it had been recorded at the same time as the first one.
The beginning of the 1990s also saw the release on the DIW label of Live at The 6th Tokio Music Joy with the AEoC and Brass Fantasy, and of a project with Cecil Taylor entitled Thelonious Sphere Monk. These works provided evidence of a new spirit within the AEoC and of openness to certain influences, especially in recording work.
The period with the Japanese label came to close with The Alternate Express and The Dreaming of the Masters Suite (a homage to Coltrane), two CDs that perhaps show the Art Ensemble of Chicago at its most typical: concentrated on their strongest aspects of interplay and improvisation. ~ Pino Saulo


Lester Bowie: trumpet, flugelhorn, steer horn, kelp horn, siren, bass whistle, celeste, cymbal rack, bass drum, gongs, percussion, vocals
Malachi Favors Maghostut: bass, electric bass, banjo, sitar, zither, horns, kazoo, bird calls, kongoma, whistle, melodica, gongs, cans, log drum, ballophone, bass pan drums, percussion, vocals
Joseph Jarman: sopranino, soprano, alto, tenor, baritone, bass saxes, soprano, alto, bass clarinets, oboe, bassoon, piccolo, Eb flute,C flute, alto flute, piano, harpsichord, celeste, synthesizer, accordion, marimba, bass pan drums, vibes, guitar, siren, whistle, bike horn, conch shell, bells, gongs, bell rack, dinner chimes, tom-toms, congas, woodblocks, ballophone, drums, percussion, vocals
Roscoe Mitchell: sopranino, soprano, alto, tenor, baritone, bass saxes, clarinet, piccolo, flute, bamboo flute, bulb horns, gourd, harmonica, recorder, guitar, steel drum, pans, bongos, congas, gongs, tambourine, angklung, cowbells, darabukkas, chimes, woodblocks, drums, percussion, vocals
Famoudou Don Moye: "Sun Percussion", trap drums, bendir, djimbe, djun-djun, donno, chekere, bird calls, African drums, whistles, horns, long horn, conch shell, chimes, bikehorns, gongs, tops, kongoma, ballophone, bass marimba, bass pan drums, wood blocks, cow bells, temple blocks, tablas, cans, claves, bells, triangles, bongos, congas, tympani, maracas, brake drums, cymbals, vocals

Ancient to the Future: Dreaming of the Master Vol.1 (DIW-804)

1. Ancient to the Future (15'32)
2. Creole Love Call (5'55)
3. These Arms of Mine (5'12)
4. No Woman No Cry (9'23)
5. Purple Haze (5'36)
6. Zombie (5'52)
Recorded at Rawleston Recording Studio, New York, on 17th to 18th of March, 1987.
 
EAC Report
Exact Audio Copy V0.99 prebeta 4 from 23. January 2008
EAC extraction logfile from 14. March 2008, 20:00
Art Ensemble of Chicago / Ancient to the Future
Used drive : MATSHITADVD-RAM UJ-840S Adapter: 1 ID: 0
Read mode : Secure
Utilize accurate stream : Yes
Defeat audio cache : Yes
Make use of C2 pointers : No
Read offset correction : 102
Overread into Lead-In and Lead-Out : No
Fill up missing offset samples with silence : Yes
Delete leading and trailing silent blocks : No
Null samples used in CRC calculations : No
Used interface : Installed external ASPI interface
Used output format : User Defined Encoder
Selected bitrate : 1024 kBit/s
Quality : High
Add ID3 tag : No
Command line compressor : C:\Program Files\Exact Audio Copy\FLAC\FLAC.EXE
Additional command line options : -6 -V -T "ARTIST=%a" -T "TITLE=%t" -T "ALBUM=%g" -T "DATE=%y" -T "TRACKNUMBER=%n" -T "GENRE=%m" -T "COMMENT=%e" %s -o %d
TOC of the extracted CD
Track | Start | Length | Start sector | End sector
---------------------------------------------------------
1 | 0:00.00 | 15:34.32 | 0 | 70081
2 | 15:34.32 | 5:55.73 | 70082 | 96779
3 | 21:30.30 | 5:14.25 | 96780 | 120354
4 | 26:44.55 | 9:23.55 | 120355 | 162634
5 | 36:08.35 | 5:36.47 | 162635 | 187881
6 | 41:45.07 | 5:52.53 | 187882 | 214334
Range status and errors
Selected range
Filename F:\u\Art Ensemble of Chicago\Art Ensemble of Chicago - Ancient to the Future.wav
Peak level 100.0 %
Range quality 100.0 %
Copy CRC 14971612
Copy OK
No errors occurred
AccurateRip summary
Track 1 not present in database
Track 2 not present in database
Track 3 not present in database
Track 4 not present in database
Track 5 not present in database
Track 6 not present in database
None of the tracks are present in the AccurateRip database
End of status report

Complete Live in Japan '84 DIW-815/16 релиз kolebas
Naked (DIW-818)
1. Dancer (2'13)
2. Tobago Tango (7'12)
3. Flash 1 (4'18)
4. We Bop (6'09)
5. Charm #10 (3'17)
6. RMR (8'02)
7. Galactic Landscape (8'09)
8. Way Way Down Yonder (9'05)
Recorded at Rawleston Recording Studio, New York, on November 1985 and July 1986.
 
EAC Report
Exact Audio Copy V0.99 prebeta 4 from 23. January 2008
EAC extraction logfile from 14. March 2008, 17:47
Art Ensemble of Chicago / Naked
Used drive : MATSHITADVD-RAM UJ-840S Adapter: 1 ID: 0
Read mode : Secure
Utilize accurate stream : Yes
Defeat audio cache : Yes
Make use of C2 pointers : No
Read offset correction : 102
Overread into Lead-In and Lead-Out : No
Fill up missing offset samples with silence : Yes
Delete leading and trailing silent blocks : No
Null samples used in CRC calculations : No
Used interface : Installed external ASPI interface
Used output format : User Defined Encoder
Selected bitrate : 1024 kBit/s
Quality : High
Add ID3 tag : No
Command line compressor : C:\Program Files\Exact Audio Copy\FLAC\FLAC.EXE
Additional command line options : -6 -V -T "ARTIST=%a" -T "TITLE=%t" -T "ALBUM=%g" -T "DATE=%y" -T "TRACKNUMBER=%n" -T "GENRE=%m" -T "COMMENT=%e" %s -o %d
TOC of the extracted CD
Track | Start | Length | Start sector | End sector
---------------------------------------------------------
1 | 0:00.00 | 2:14.55 | 0 | 10104
2 | 2:14.55 | 7:13.40 | 10105 | 42619
3 | 9:28.20 | 4:21.05 | 42620 | 62199
4 | 13:49.25 | 6:07.55 | 62200 | 89779
5 | 19:57.05 | 3:13.02 | 89780 | 104256
6 | 23:10.07 | 8:04.03 | 104257 | 140559
7 | 31:14.10 | 8:11.57 | 140560 | 177441
8 | 39:25.67 | 9:03.30 | 177442 | 218196
Range status and errors
Selected range
Filename F:\u\Art Ensemble of Chicago\Art Ensemble of Chicago - Naked.wav
Peak level 90.5 %
Range quality 100.0 %
Copy CRC 79575AC3
Copy OK
No errors occurred
AccurateRip summary
Track 1 not present in database
Track 2 not present in database
Track 3 not present in database
Track 4 not present in database
Track 5 not present in database
Track 6 not present in database
Track 7 not present in database
Track 8 not present in database
None of the tracks are present in the AccurateRip database
End of status report

The Alternative Express (DIW-832)
1. Whatever Happens (9'59)
2. And There was Peace (5'28)
3. Imaginary Situations (9'28)
4. Kush (21'40)
5. Alternative Express (4'25)
Recorded at CRC Studio, Chicago, on January 1989.
 
EAC Report
Exact Audio Copy V0.99 prebeta 4 from 23. January 2008
EAC extraction logfile from 14. March 2008, 16:05
Art Ensemble of Chicago / The Alternate Expess
Used drive : MATSHITADVD-RAM UJ-840S Adapter: 1 ID: 0
Read mode : Secure
Utilize accurate stream : Yes
Defeat audio cache : Yes
Make use of C2 pointers : No
Read offset correction : 102
Overread into Lead-In and Lead-Out : No
Fill up missing offset samples with silence : Yes
Delete leading and trailing silent blocks : No
Null samples used in CRC calculations : No
Used interface : Installed external ASPI interface
Used output format : User Defined Encoder
Selected bitrate : 1024 kBit/s
Quality : High
Add ID3 tag : No
Command line compressor : C:\Program Files\Exact Audio Copy\FLAC\FLAC.EXE
Additional command line options : -6 -V -T "ARTIST=%a" -T "TITLE=%t" -T "ALBUM=%g" -T "DATE=%y" -T "TRACKNUMBER=%n" -T "GENRE=%m" -T "COMMENT=%e" %s -o %d
TOC of the extracted CD
Track | Start | Length | Start sector | End sector
---------------------------------------------------------
1 | 0:00.00 | 9:59.45 | 0 | 44969
2 | 9:59.45 | 5:31.05 | 44970 | 69799
3 | 15:30.50 | 9:31.25 | 69800 | 112649
4 | 25:02.00 | 21:43.00 | 112650 | 210374
5 | 46:45.00 | 4:25.25 | 210375 | 230274
Range status and errors
Selected range
Filename F:\u\Art Ensemble of Chicago - The Alternate Expess.wav
Peak level 90.8 %
Range quality 99.9 %
Copy CRC ABA52A69
Copy OK
No errors occurred
AccurateRip summary
Track 1 not present in database
Track 2 not present in database
Track 3 not present in database
Track 4 not present in database
Track 5 not present in database
None of the tracks are present in the AccurateRip database
End of status report

Art Ensemble of Soweto: Art Ensemble of Chicago with Amabutho (DIW-837)
1. Coming Soon (1'31)
2. African Woman (13'54)
3. Fundamental Destiny (9'13)
4. Fresh Start (6'41)
5. Khauleza (2'43)
6. The Bottom Line (5'31)
7. Black Man (9'18)
Recorded at System Two Studio, New York, December, 1989 and January, 1990
 
EAC Report
Exact Audio Copy V0.99 prebeta 4 from 23. January 2008
EAC extraction logfile from 14. March 2008, 18:04
Art Ensemble of Chicago / Art Ensemble of Soweto
Used drive : MATSHITADVD-RAM UJ-840S Adapter: 1 ID: 0
Read mode : Secure
Utilize accurate stream : Yes
Defeat audio cache : Yes
Make use of C2 pointers : No
Read offset correction : 102
Overread into Lead-In and Lead-Out : No
Fill up missing offset samples with silence : Yes
Delete leading and trailing silent blocks : No
Null samples used in CRC calculations : No
Used interface : Installed external ASPI interface
Used output format : User Defined Encoder
Selected bitrate : 1024 kBit/s
Quality : High
Add ID3 tag : No
Command line compressor : C:\Program Files\Exact Audio Copy\FLAC\FLAC.EXE
Additional command line options : -6 -V -T "ARTIST=%a" -T "TITLE=%t" -T "ALBUM=%g" -T "DATE=%y" -T "TRACKNUMBER=%n" -T "GENRE=%m" -T "COMMENT=%e" %s -o %d
TOC of the extracted CD
Track | Start | Length | Start sector | End sector
---------------------------------------------------------
1 | 0:00.00 | 1:31.20 | 0 | 6844
2 | 1:31.20 | 13:55.15 | 6845 | 69484
3 | 15:26.35 | 9:14.62 | 69485 | 111096
4 | 24:41.22 | 6:42.60 | 111097 | 141306
5 | 31:24.07 | 2:44.73 | 141307 | 153679
6 | 34:09.05 | 5:33.15 | 153680 | 178669
7 | 39:42.20 | 9:18.05 | 178670 | 220524
Range status and errors
Selected range
Filename F:\u\Art Ensemble of Chicago\Art Ensemble of Chicago - Art Ensemble of Soweto.wav
Peak level 93.5 %
Range quality 100.0 %
Copy CRC ED6128AD
Copy OK
No errors occurred
AccurateRip summary
Track 1 not present in database
Track 2 not present in database
Track 3 not present in database
Track 4 not present in database
Track 5 not present in database
Track 6 not present in database
Track 7 not present in database
None of the tracks are present in the AccurateRip database
End of status report

Live at the Tokio Music Joy '90: Art Ensemble of Chicago with Brass Fantasy (DIW-842E)
1. Yobu-Sun (4'35)
2. Ride The Line (3'56)
3. Song For Atala (2'49)
4. Night Time Is The Right Time (3'04)
5. Good Morning Heartache (8'34)
6. Music Of The Night (7'13)
7. The Emperor (13'45)
8. Variations (9'07)
9. Jackson In Your house (4'50)
10. The Great Pretender (3'10)
 
EAC Report
Exact Audio Copy V0.99 prebeta 4 from 23. January 2008
EAC extraction logfile from 14. March 2008, 19:35
Art Ensemble of Chicago / Live At Tokyo Music Joy '90
Used drive : MATSHITADVD-RAM UJ-840S Adapter: 1 ID: 0
Read mode : Secure
Utilize accurate stream : Yes
Defeat audio cache : Yes
Make use of C2 pointers : No
Read offset correction : 102
Overread into Lead-In and Lead-Out : No
Fill up missing offset samples with silence : Yes
Delete leading and trailing silent blocks : No
Null samples used in CRC calculations : No
Used interface : Installed external ASPI interface
Used output format : User Defined Encoder
Selected bitrate : 1024 kBit/s
Quality : High
Add ID3 tag : No
Command line compressor : C:\Program Files\Exact Audio Copy\FLAC\FLAC.EXE
Additional command line options : -6 -V -T "ARTIST=%a" -T "TITLE=%t" -T "ALBUM=%g" -T "DATE=%y" -T "TRACKNUMBER=%n" -T "GENRE=%m" -T "COMMENT=%e" %s -o %d
TOC of the extracted CD
Track | Start | Length | Start sector | End sector
---------------------------------------------------------
1 | 0:00.00 | 4:35.20 | 0 | 20644
2 | 4:35.20 | 3:57.50 | 20645 | 38469
3 | 8:32.70 | 2:49.12 | 38470 | 51156
4 | 11:22.07 | 3:04.20 | 51157 | 64976
5 | 14:26.27 | 8:34.48 | 64977 | 103574
6 | 23:01.00 | 7:13.62 | 103575 | 136111
7 | 30:14.62 | 13:45.65 | 136112 | 198051
8 | 44:00.52 | 9:07.00 | 198052 | 239076
9 | 53:07.52 | 4:50.40 | 239077 | 260866
10 | 57:58.17 | 3:10.58 | 260867 | 275174
Range status and errors
Selected range
Filename F:\u\Art Ensemble of Chicago\Art Ensemble of Chicago - Live At Tokyo Music Joy '90.wav
Peak level 86.8 %
Range quality 100.0 %
Copy CRC 3B869981
Copy OK
No errors occurred
AccurateRip summary
Track 1 not present in database
Track 2 not present in database
Track 3 not present in database
Track 4 not present in database
Track 5 not present in database
Track 6 not present in database
Track 7 not present in database
Track 8 not present in database
Track 9 not present in database
Track 10 not present in database
None of the tracks are present in the AccurateRip database
End of status report

Thelonious Sphere Monk: Dreaming of the Masters Vol.2: Art Ensemble of Chicago with Cecil Taylor (DIW-846)
1. Dreaming of the Masters (0'54)
2. Intro to Fifteen (18'23)
3. Excerpt from Fifteen part 3A (10'48)
4. Round Midnight (15'21)
5. Caseworks (8'18)
6. Nutty (7'24)
7. Dreaming of the Masters (0'52)
Recorded at System Two Studio, New York, on 16th - 19th, 31st of Feburuary and on 10th - 11th of March, 1990
 
EAC Report
Exact Audio Copy V0.99 prebeta 4 from 23. January 2008
EAC extraction logfile from 14. March 2008, 18:40
Art Ensemble of Chicago / Thelonious Sphere Monk
Used drive : MATSHITADVD-RAM UJ-840S Adapter: 1 ID: 0
Read mode : Secure
Utilize accurate stream : Yes
Defeat audio cache : Yes
Make use of C2 pointers : No
Read offset correction : 102
Overread into Lead-In and Lead-Out : No
Fill up missing offset samples with silence : Yes
Delete leading and trailing silent blocks : No
Null samples used in CRC calculations : No
Used interface : Installed external ASPI interface
Used output format : User Defined Encoder
Selected bitrate : 1024 kBit/s
Quality : High
Add ID3 tag : No
Command line compressor : C:\Program Files\Exact Audio Copy\FLAC\FLAC.EXE
Additional command line options : -6 -V -T "ARTIST=%a" -T "TITLE=%t" -T "ALBUM=%g" -T "DATE=%y" -T "TRACKNUMBER=%n" -T "GENRE=%m" -T "COMMENT=%e" %s -o %d
TOC of the extracted CD
Track | Start | Length | Start sector | End sector
---------------------------------------------------------
1 | 0:00.00 | 0:57.42 | 0 | 4316
2 | 0:57.42 | 18:25.65 | 4317 | 87256
3 | 19:23.32 | 10:51.00 | 87257 | 136081
4 | 30:14.32 | 15:23.45 | 136082 | 205351
5 | 45:38.02 | 8:22.60 | 205352 | 243061
6 | 54:00.62 | 7:27.63 | 243062 | 276649
7 | 61:28.50 | 0:52.55 | 276650 | 280604
Range status and errors
Selected range
Filename F:\u\Art Ensemble of Chicago\Art Ensemble of Chicago - Thelonious Sphere Monk.wav
Peak level 95.3 %
Range quality 100.0 %
Copy CRC 519ED8D8
Copy OK
No errors occurred
AccurateRip summary
Track 1 not present in database
Track 2 not present in database
Track 3 not present in database
Track 4 not present in database
Track 5 not present in database
Track 6 not present in database
Track 7 not present in database
None of the tracks are present in the AccurateRip database
End of status report

America / South Africa: Art Ensemble of Chicago with Amabutho (DIW-848)
1. U.S. of A. - U. of S.A.(17'56)
2. Colors One (3'52)
3. Eric T (3'11)
4. You Got it (14'12)
5. America (5'12)
6. Zola's Smile (3'52)
Recorded at System Two Studio, New York, December, 1989 and January, 1990
 
EAC Report
Exact Audio Copy V0.99 prebeta 4 from 23. January 2008
EAC extraction logfile from 14. March 2008, 19:49
Art Ensemble of Chicago / America - South Africa
Used drive : MATSHITADVD-RAM UJ-840S Adapter: 1 ID: 0
Read mode : Secure
Utilize accurate stream : Yes
Defeat audio cache : Yes
Make use of C2 pointers : No
Read offset correction : 102
Overread into Lead-In and Lead-Out : No
Fill up missing offset samples with silence : Yes
Delete leading and trailing silent blocks : No
Null samples used in CRC calculations : No
Used interface : Installed external ASPI interface
Used output format : User Defined Encoder
Selected bitrate : 1024 kBit/s
Quality : High
Add ID3 tag : No
Command line compressor : C:\Program Files\Exact Audio Copy\FLAC\FLAC.EXE
Additional command line options : -6 -V -T "ARTIST=%a" -T "TITLE=%t" -T "ALBUM=%g" -T "DATE=%y" -T "TRACKNUMBER=%n" -T "GENRE=%m" -T "COMMENT=%e" %s -o %d
TOC of the extracted CD
Track | Start | Length | Start sector | End sector
---------------------------------------------------------
1 | 0:00.00 | 17:57.40 | 0 | 80814
2 | 17:57.40 | 3:53.37 | 80815 | 98326
3 | 21:51.02 | 3:13.20 | 98327 | 112821
4 | 25:04.22 | 14:14.15 | 112822 | 176886
5 | 39:18.37 | 5:14.18 | 176887 | 200454
6 | 44:32.55 | 3:51.52 | 200455 | 217831
Range status and errors
Selected range
Filename F:\u\Art Ensemble of Chicago\Art Ensemble of Chicago - America - South Africa.wav
Peak level 89.5 %
Range quality 100.0 %
Copy CRC 02B5ABED
Copy OK
No errors occurred
AccurateRip summary
Track 1 not present in database
Track 2 not present in database
Track 3 not present in database
Track 4 not present in database
Track 5 not present in database
Track 6 not present in database
None of the tracks are present in the AccurateRip database
End of status report

Dreaming of the Masters Suite: Music Inspired And Dedicated To John Coltrane (DIW-854)
1. Dreaming of the Masters (1'01)
2. Call of the Captain (2'17)
3. Impressions (6'45)
4. Colors Too (6'11)
5. Naima (5'34)
6. Spiritual (2'43)
7. Ohnedaruth (7'00)
8. Go Head (7'35)
9. Song for Atala (6'52)
10. Dreaming of the Masters (0'48)
Recorded at System Two Studio, New York, on 12th, 14th of January and on 11th, 17th, 18th, 21st, 24th of March, 1990
 
EAC Report
Exact Audio Copy V0.99 prebeta 4 from 23. January 2008
EAC extraction logfile from 14. March 2008, 19:11
Art Ensemble of Chicago / Dreaming of the Masters Suite
Used drive : MATSHITADVD-RAM UJ-840S Adapter: 1 ID: 0
Read mode : Secure
Utilize accurate stream : Yes
Defeat audio cache : Yes
Make use of C2 pointers : No
Read offset correction : 102
Overread into Lead-In and Lead-Out : No
Fill up missing offset samples with silence : Yes
Delete leading and trailing silent blocks : No
Null samples used in CRC calculations : No
Used interface : Installed external ASPI interface
Used output format : User Defined Encoder
Selected bitrate : 1024 kBit/s
Quality : High
Add ID3 tag : No
Command line compressor : C:\Program Files\Exact Audio Copy\FLAC\FLAC.EXE
Additional command line options : -6 -V -T "ARTIST=%a" -T "TITLE=%t" -T "ALBUM=%g" -T "DATE=%y" -T "TRACKNUMBER=%n" -T "GENRE=%m" -T "COMMENT=%e" %s -o %d
TOC of the extracted CD
Track | Start | Length | Start sector | End sector
---------------------------------------------------------
1 | 0:00.00 | 1:04.05 | 0 | 4804
2 | 1:04.05 | 2:20.13 | 4805 | 15317
3 | 3:24.18 | 6:47.05 | 15318 | 45847
4 | 10:11.23 | 6:13.20 | 45848 | 73842
5 | 16:24.43 | 5:37.50 | 73843 | 99167
6 | 22:02.18 | 2:46.35 | 99168 | 111652
7 | 24:48.53 | 7:02.20 | 111653 | 143322
8 | 31:50.73 | 7:37.37 | 143323 | 177634
9 | 39:28.35 | 6:56.50 | 177635 | 208884
10 | 46:25.10 | 0:48.38 | 208885 | 212522
Range status and errors
Selected range
Filename F:\u\Art Ensemble of Chicago\Art Ensemble of Chicago - Dreaming of the Masters Suite.wav
Peak level 91.4 %
Range quality 100.0 %
Copy CRC 88C19598
Copy OK
No errors occurred
AccurateRip summary
Track 1 not present in database
Track 2 not present in database
Track 3 not present in database
Track 4 not present in database
Track 5 not present in database
Track 6 not present in database
Track 7 not present in database
Track 8 not present in database
Track 9 not present in database
Track 10 not present in database
None of the tracks are present in the AccurateRip database
End of status report

Приватный:
Нет (DHT включён)
Размер:
2.27 Гб (2,438,510,040 байт) » файлов: 48
Участники:
0 раздают, 0 качают (0 участников всего)
Внешние участники:
5 раздают, 2 качают (7 участников всего) [ Обновить ]
Есть вопросы - пишите личное сообщение пользователю M0p94ok.
00:01
75
Нет комментариев. Ваш будет первым!