Поиск

(Avant-Garde,Free Jazz) Company 6&7(Derek Bailey,Han Bennink,Steve Beresford,Anthony Braxton,Lol Coxhill,Tristan Honsinger,Steve Lacy,Evan Parker,Leo Smith,Maarten Van Regteren Altena) - 1977, APE (image + .cue), lossless

Треклист:
Company 6&7(Derek Bailey,Han Bennink,Steve Beresford,Anthony Braxton,Lol Coxhill,Tristan Honsinger,Steve Lacy,Evan Parker,Leo Smith,Maarten Van Regteren Altena)
Страна: U.K.
Жанр: Avant-Garde,Free Jazz
Год выпуска: 1977
Формат: APE (image + .cue)
Битрейт аудио: lossless
Продолжительность: 70:40
Трэклист:
1 LS/TH/AB/SL/Mr 14:28
2 HB/AB/DB 8:44
3 SB/Mr/HB/LC 5:40
4 LC/TH/LS 6:56
5 AB/EP 7:48
6 TH/Mr/SB/HB/DB 10:19
7 SL/EP/AB/AC 4:18
8 TH/LS 3:05
9 HB/LC/Mr/TH 5:00
10 EP/LS/DB 4:18
The titles are derived from the initials of the musiciants.
Derek Bailey - Guitar (Acoustic), Guitar (Electric)
Han Bennink - Banjo, Clarinet, Drums, Viola
Steve Beresford - Guitar, Piano
Anthony Braxton- Clarinet, Flute, Sax (Alto), Sax (Soprano)
Lol Coxhill - Sax (Soprano)
Tristan Honsinger - Cello
Steve Lacy- Sax (Soprano)
Evan Parker - Sax (Soprano), Sax (Tenor)
Leo Smith - Flute, Trumpet
Maarten Van Regteren Altena- Bass
Ben Watson - Liner Notes
Recorded on May 25-27 1977.
Доп. информация: Рип сделан собственноручно с фирм.диска,сканы обложек(300 dpi)внутри.
 
скрытый текст
Exact Audio Copy V0.99 prebeta 3 from 28. July 2007
Отчёт EAC об извлечении, выполненном 9. марта 2008, 13:23
Unknown Artist / Unknown Title
Дисковод: ASUS DRW-1608P3S Adapter: 0 ID: 0
Режим чтения : Достоверность
Использование точного потока : Да
Отключение кэша аудио : Да
Использование указателей C2 : Нет
Коррекция смещения при чтении : 48
Способность читать области Lead-in и Lead-out : Нет
Заполнение пропущенных сэмплов тишиной : Да
Удаление блоков с тишиной в начале и конце : Нет
При вычислениях CRC использовались нулевые сэмплы : Да
Интерфейс : Установленный внешний ASPI-интерфейс
Выходной формат : Monkey's Audio Lossless Encoder v3.99 DLL
Формат сэмплов : High Lossless Compression
TOC извлечённого CD
Трек | Старт | Длительность | Начальный сектор | Конечный сектор
---------------------------------------------------------------------
1 | 0:00.00 | 14:28.32 | 0 | 65131
2 | 14:28.32 | 8:44.10 | 65132 | 104441
3 | 23:12.42 | 5:40.28 | 104442 | 129969
4 | 28:52.70 | 6:56.25 | 129970 | 161194
5 | 35:49.20 | 7:48.25 | 161195 | 196319
6 | 43:37.45 | 10:19.35 | 196320 | 242779
7 | 53:57.05 | 4:18.55 | 242780 | 262184
8 | 58:15.60 | 3:05.12 | 262185 | 276071
9 | 61:20.72 | 5:00.25 | 276072 | 298596
10 | 66:21.22 | 4:18.53 | 298597 | 317999
Характеристики диапазона извлечения и сообщения об ошибках
Выбранный диапазон
Имя файла C:\Documents and Settings\1\Рабочий стол\Unknown Artist - Unknown Title.ape
Пиковый уровень 100.0 %
Качество диапазона 100.0 %
CRC теста 13F72424
CRC копии 13F72424
Копирование... OK
Ошибок не произошло
Конец отчёта
Приватный:
Нет (DHT включён)
Размер:
350.98 Мб (368,027,513 байт) » файлов: 10
Участники:
0 раздают, 0 качают (0 участников всего)
Внешние участники:
2 раздают, 1 качают (3 участников всего) [ Обновить ]
Есть вопросы - пишите личное сообщение пользователю M0p94ok.
00:00
58
Нет комментариев. Ваш будет первым!