Поиск

(Live Jazz / Avant-Garde Jazz) Ornette Coleman — At The "Golden Circle" Stockholm, 2 CD (RVG Edition) — 1965 / 2002, FLAC (tracks)

Треклист:
The Ornette Coleman Trio
At The »Golden Circle« Stockholm
(RVG Edition)
Label: Blue Note
Жанр: Live Jazz / Avant-Garde Jazz
Год выпуска: 2002
Формат: FLAC (tracks)
Продолжительность: 75:45 + 77:53
Трэклист:
volume one
1. Announcement 1:09
2. Faces and places 11:37
3. European echoes 7:53
4. Dee dee 10:38
5. Dawn 8:05
6. Faces and places (Alternative take) 8:31
7. European echoes (Alternative take) 14:13
8. Doughnuts 13:30
 
что-то по английски
Ornette Coleman's 1965 trio with bassist David Izenzon and drummer Charles Moffett is easily the most underrated of all his bands. Coming off the light of the famed quartet in which Don Cherry, Eddie Blackwell, and Charlie Haden shone, anything might have looked a bit dimmer, it's true. But this band certainly had no apologies to make. Coleman was deep into creating a new approach to melody, since Haden and Cherry had honed his harmonic sensibilities. Izenzon proved to be the right bassist for Coleman to realize his ambitions. A stunning arco as well as pizzicato player (check his solo in "Dawn") Izenzon offered Coleman the perfect foil. No matter where Coleman's soloing moved the band, Izenzon was there at exactly the same time with an uncanny sense of counterpoint, and he often changed the harmonic mode by force. The first of these two volumes from December 3 shows Coleman in a playful, mischievous frame of mind, toying with the trio ads well as the audience on "Faces and Places" by inserting standard bop phrases and song quotes into the heart of his free soloing. On "Dee Dee," Coleman moves along to rhythmic counterpoint by Moffett, pushing Izenzon into the unlikely role of beat-keeper — not simple for such an amazing improviser. But it's on the closer, "Dawn," that the band gels as one inseparable, ethereal unit, cascading through scalar invention and chromatic interplay as if it were second nature.Thom Jurek (AMG)
volume two
1. Snowflakes and sunshine 10:42
2. Morning song 10:41
3. The riddle 9:54
4. Antiques 12:35
5. Morning song (Alternative take) 8:16
6. The riddle (Alternative take) 12:39
7. Antiques (Alternative take) 13:00
 
опять что-то по английски
The second night of Ornette Coleman's two-week stand in Sweden was even fierier than the first, if the recorded documents are to be believed. For starters, December 4 was the night that Coleman brought out the violin and the trumpet on the first tune; "Snowflakes and Sunshine" must have taken club-goers by surprise. Those first notes skitter across the neck as the bow goes "scree" in the middle registers and bassist David Izenzon moves to create an atonal bed of rock for Coleman, while Charles Moffett plays in the triple time to a cipher of a time signature. And just as the violin starts to create a tension that is difficult for the other two members of his trio to endure musically, Coleman switches to trumpet and hauls it back inside, or at least to the ledge's edge before returning to the violin a few minutes later. The rhythm sect tries to rein him in, but he careens off Izenzon's arco playing and into an entirely new harmonic language. For the rest of the gig, it's back to the alto, with Coleman even going as far as to goof on Gershwin's "Rhapsody in Blue" on the opening bars of "Morning Song" before playing a ballad every bit as tender and angularly beautiful as one of his. "Riddles" is one of Coleman's Eastern screamers, played modally with the same kind of breathy acrobatics Coltrane used on the music that made it onto the posthumous Sunship. There are several drone modes created by Izenzon, with off-measure rhythmic figures cut by Moffett. Coleman plays the alto as one would a Tibetan oboe or a thighbone trumpet, reaching deep into the lower register to touch the drone and then sail off into scalar abandon. There is more than enough fire, but the astonishing thing is the color and texture Coleman gets from the horn. The set closes with a lovely, knotty piece called "Antiques," in which Izenzon and Coleman match modes for an interesting meeting of the minds in a dramatic wash of color and mood. This is the stronger of the two evenings, but they are both fine records by an under-recognized band in Coleman's development.Thom Jurek (AMG)
Доп. информация:
Ornette Coleman, alto sax
David Izenzon, bass
Charles Moffett, drums
Recording Date: December 3 & 4, 1965
digitally remastered by Rudy van Gelder in 2001
 
Volume One
Отчёт EAC об извлечении, выполненном 12. марта 2008, 22:19 для диска:
Ornette Coleman / At The Golden Circle, Volume One (RVG Edition)
Дисковод: TSSTcorpCDDVDW SH-S203D Adapter: 2 ID: 1
Режим чтения: Достоверный (C2: нет, Точный поток: да, Отключение кэша: да)
Коррекция смещения при чтении: 6
Способность читать области Lead-in и Lead-out : Нет
Выходной формат: Внутренние WAV-операции
44.100 Гц; 16 бит; стерео
Другие параметры:
Заполнение пропущенных сэмплов тишиной : Да
Удаление блоков с тишиной в начале и конце : Нет
Встроенный Win32-интерфейс для Win NT/2000
Трек 1
Имя файла D:\Music\RIP\(01) Announcement - Ornette Coleman.wav
Пиковый уровень 97.9 %
Качество трека 100.0 %
CRC теста D1B921C2
CRC копии D1B921C2
Копирование... OK
Трек 2
Имя файла D:\Music\RIP\(02) Faces And Places - Ornette Coleman.wav
Пиковый уровень 97.9 %
Качество трека 100.0 %
CRC теста 6C21A136
CRC копии 6C21A136
Копирование... OK
Трек 3
Имя файла D:\Music\RIP\(03) European Echoes - Ornette Coleman.wav
Пиковый уровень 97.9 %
Качество трека 99.9 %
CRC теста 4AF8E79F
CRC копии 4AF8E79F
Копирование... OK
Трек 4
Имя файла D:\Music\RIP\(04) Dee Dee - Ornette Coleman.wav
Пиковый уровень 97.9 %
Качество трека 100.0 %
CRC теста 91E1C6CC
CRC копии 91E1C6CC
Копирование... OK
Трек 5
Имя файла D:\Music\RIP\(05) Dawn - Ornette Coleman.wav
Пиковый уровень 97.9 %
Качество трека 100.0 %
CRC теста 99C3DDED
CRC копии 99C3DDED
Копирование... OK
Трек 6
Имя файла D:\Music\RIP\(06) Faces And Places (Alt Tk) - Ornette Coleman.wav
Пиковый уровень 97.9 %
Качество трека 100.0 %
CRC теста 7B93B989
CRC копии 7B93B989
Копирование... OK
Трек 7
Имя файла D:\Music\RIP\(07) European Echoes (Alt Tk) - Ornette Coleman.wav
Пиковый уровень 97.9 %
Качество трека 100.0 %
CRC теста 0B688138
CRC копии 0B688138
Копирование... OK
Трек 8
Имя файла D:\Music\RIP\(08) Doughnuts - Ornette Coleman.wav
Пиковый уровень 100.0 %
Качество трека 99.9 %
CRC теста ECDB5BA3
CRC копии ECDB5BA3
Копирование... OK
Ошибок не произошло
Конец отчёта
 
Volume Two
Отчёт EAC об извлечении, выполненном 12. марта 2008, 22:59 для диска:
Ornette Coleman / At The Golden Circle, Volume Two (RVG Edition)
Дисковод: TSSTcorpCDDVDW SH-S203D Adapter: 2 ID: 1
Режим чтения: Достоверный (C2: нет, Точный поток: да, Отключение кэша: да)
Коррекция смещения при чтении: 6
Способность читать области Lead-in и Lead-out : Нет
Выходной формат: Внутренние WAV-операции
44.100 Гц; 16 бит; стерео
Другие параметры:
Заполнение пропущенных сэмплов тишиной : Да
Удаление блоков с тишиной в начале и конце : Нет
Встроенный Win32-интерфейс для Win NT/2000
Трек 1
Имя файла D:\Music\RIP\(01) Snowflakes And Sunshine - Ornette Coleman.wav
Пиковый уровень 97.9 %
Качество трека 100.0 %
CRC теста 9B9E431A
CRC копии 9B9E431A
Копирование... OK
Трек 2
Имя файла D:\Music\RIP\(02) Morning Song - Ornette Coleman.wav
Пиковый уровень 97.9 %
Качество трека 100.0 %
CRC теста 2A6E1415
CRC копии 2A6E1415
Копирование... OK
Трек 3
Имя файла D:\Music\RIP\(03) The Riddle - Ornette Coleman.wav
Пиковый уровень 99.2 %
Качество трека 100.0 %
CRC теста 9AB5DE2E
CRC копии 9AB5DE2E
Копирование... OK
Трек 4
Имя файла D:\Music\RIP\(04) Antiques - Ornette Coleman.wav
Пиковый уровень 97.9 %
Качество трека 100.0 %
CRC теста 46A18410
CRC копии 46A18410
Копирование... OK
Трек 5
Имя файла D:\Music\RIP\(05) Morning Song (Alternate Take) - Ornette Coleman.wav
Пиковый уровень 97.9 %
Качество трека 100.0 %
CRC теста 02B25055
CRC копии 02B25055
Копирование... OK
Трек 6
Имя файла D:\Music\RIP\(06) The Riddle (Alternate Take) - Ornette Coleman.wav
Пиковый уровень 98.0 %
Качество трека 100.0 %
CRC теста A3D6D931
CRC копии A3D6D931
Копирование... OK
Трек 7
Имя файла D:\Music\RIP\(07) Antiques (Alternate Take) - Ornette Coleman.wav
Пиковый уровень 98.0 %
Качество трека 99.9 %
CRC теста 8FF0EA78
CRC копии 8FF0EA78
Копирование... OK
Ошибок не произошло
Конец отчёта
На этот раз, к сожалению, сканов нет
Приватный:
Нет (DHT включён)
Размер:
981.30 Мб (1,028,971,445 байт) » файлов: 25
Участники:
0 раздают, 0 качают (0 участников всего)
Внешние участники:
5 раздают, 1 качают (6 участников всего) [ Обновить ]
No seeders - write personal message to user M0p94ok. Нет сидеров - пишите личное сообщение пользователю M0p94ok.
23:58
67
Нет комментариев. Ваш будет первым!