Поиск

(Jazz) Gary Peacock & Ralph Towner - Oracle - 1994, FLAC (image + .cue), lossless

(Jazz) Gary Peacock & Ralph Towner - Oracle - 1994, FLAC (image + .cue), lossless
Треклист:
Gary Peacock & Ralph Towner - Oracle
Страна: USA
Жанр: Jazz
Год выпуска: 1994
Формат: FLAC (image + .cue)
Битрейт аудио: lossless
Продолжительность: 50:22
Gary Peacock double-bass
Ralph Towner 12-string and classical guitars
Gaya
Flutter Step
Empty Carrousel
Hat And Cane
Inside Inside
St. Helens
Oracle
Burly Hello
Tramonto
Recorded May 1993
ECM 1490
 
EAC Report
Exact Audio Copy V0.99 prebeta 4 from 23. January 2008
EAC extraction logfile from 14. March 2008, 22:09
Gary Peacock & Ralph Towner / Oracle
Used drive : MATSHITADVD-RAM UJ-840S Adapter: 1 ID: 0
Read mode : Secure
Utilize accurate stream : Yes
Defeat audio cache : Yes
Make use of C2 pointers : No
Read offset correction : 102
Overread into Lead-In and Lead-Out : No
Fill up missing offset samples with silence : Yes
Delete leading and trailing silent blocks : No
Null samples used in CRC calculations : No
Used interface : Installed external ASPI interface
Used output format : User Defined Encoder
Selected bitrate : 1024 kBit/s
Quality : High
Add ID3 tag : No
Command line compressor : C:\Program Files\Exact Audio Copy\FLAC\FLAC.EXE
Additional command line options : -6 -V -T "ARTIST=%a" -T "TITLE=%t" -T "ALBUM=%g" -T "DATE=%y" -T "TRACKNUMBER=%n" -T "GENRE=%m" -T "COMMENT=%e" %s -o %d
TOC of the extracted CD
Track | Start | Length | Start sector | End sector
---------------------------------------------------------
1 | 0:00.33 | 5:48.22 | 33 | 26154
2 | 5:48.55 | 5:47.40 | 26155 | 52219
3 | 11:36.20 | 5:50.50 | 52220 | 78519
4 | 17:26.70 | 5:15.25 | 78520 | 102169
5 | 22:42.20 | 6:00.18 | 102170 | 129187
6 | 28:42.38 | 1:56.00 | 129188 | 137887
7 | 30:38.38 | 7:24.07 | 137888 | 171194
8 | 38:02.45 | 5:58.28 | 171195 | 198072
9 | 44:00.73 | 6:21.35 | 198073 | 226682
Range status and errors
Selected range
Filename F:\u\Ralph Towner\Gary Peacock & Ralph Towner - Oracle.wav
Peak level 95.8 %
Range quality 100.0 %
Copy CRC 0092381B
Copy OK
No errors occurred
AccurateRip summary
Track 1 not present in database
Track 2 not present in database
Track 3 not present in database
Track 4 not present in database
Track 5 not present in database
Track 6 not present in database
Track 7 not present in database
Track 8 not present in database
Track 9 not present in database
None of the tracks are present in the AccurateRip database
End of status report
Приватный:
Нет (DHT включён)
Размер:
184.21 Мб (193,157,712 байт) » файлов: 6
Участники:
0 раздают, 0 качают (0 участников всего)
Внешние участники:
3 раздают, 1 качают (4 участников всего) [ Обновить ]
Есть вопросы - пишите личное сообщение пользователю M0p94ok.
00:02
50
Нет комментариев. Ваш будет первым!