Поиск

(Jazz, Afrobeat, Funk) Dele Sosimi - Turbulent Times - 2002, APE (image+.cue), lossless

Треклист:
Dele Sosimi - Turbulent Times
Жанр: Jazz, Afrobeat, Funk
Год выпуска диска: 2002
Производитель диска: England
Аудио кодек: APE
Тип рипа: image+.cue
Битрейт аудио: lossless
Продолжительность: 43:59
Трэклист:
1. Turbulent Times (e get as e be)
2. Gbedu
3. Phaze 2 (What Next?)
4. Big Cat Fat Cat
5. Di Godfada
6. I No Like
Musicians:
Dele Sosimi - keyboards, lead vocals
Feyi Akinwunmi - drums
Femi Elias - bass
Kunle Olasoju - guitar, background vocals
Richard Ajileye - perc.
Eki Gbinigie - background vocals
Byron Wallen - trumpet, flugel horn
Linus Bewley - tenor saxophone
Jastin Thungur - trombone
Toni Kofi - baritone saxophone
 
Об исполнителе (eng.)
Dele Sosimi is a top Afrobeat performer who was born in Hackney, London.
Going back to his school days in Nigeria to find out when he first took a keen interest in music, he used the school piano to teach himself to play Fela Kuti’s music. He recalls his grandfather being a church organist who had a great influence on his piano-playing. From age 14, Dele also started to play guitar and was a backing singer in the school band "Hidden Truth" after picking up a few foundational rudiments from the music teacher at Igbobi College.
From 1980-1986 Dele was in Fela Kuti’s band Egypt 80. They toured all over Europe and USA. Dele played keyboards on many Fela/Egypt 80 hits such as ITT (International Thief Thief), and Teacher Don't Teach Me Nonsense.
In the years 1987-1992 Dele was in Femi Kuti’s Jazz Quartet, they toured Benin Republic, Togo, Ivory Coast and Ghana.
During 1986-1995 Dele toured France, Spain, Austria, Holland, Belgium, Switzerland, UK, Germany, Denmark, USA, Canada, Ivory Coast, Togo, Benin Republic and Ghana with Femi Kuti and the Positive Force [co-founder].
Dele came to be based in Britain at the end of December 1995. In 1996, he started playing as a resident musician in some of London's Nigerian venues, initially playing as a duo, then later on forming Gbedu Resurrection, which he led to several London venues, such as the Africa Centre, Taylors and The Shrine. He also played for two of the Nigerian Independence Day Functions in 1997 and 1998, held at Hammersmith Palais and Lagoonda Nite Club respectively. Dele's collaborations in this period included working as lead pianist with The African Jazz Explosion All Stars, lead by Claude Deppa and also with Lucky Ranku and the African All Stars.
Top venues in London where Dele has played since 2000 include the South Bank Halls and Smollensky’s. Dele started 2003 with a bang that can only be attributed to the successful release of his album Turbulent Times at the beginning of 2002. Following this, in 2003 Dele and his 14-piece strong Afrobeat Orchestra stormed and rocked the Queen Elizabeth Hall, London, the x.trax showcase in Manchester, the Respect Festival at the Millenium Dome in Greenwich and the Jazz Café. Another highlight was at London's Africa Day 2007. Internationally Dele has performed in Holland, Mexico City, Canada and Norway.
Dele Sosimi now performs in three formats – as the Afrobeat Acoustic
Trio, as a 6-piece group, called Dele Sosimi’s Gbedu and the other as a minimum 10-piece Afrobeat Orchestra. Some of Dele Sosimi’s original compositions currently being played include ‘Gbedu 1’, ‘Big Cat Fat Cat’, ‘Turbulent Tymes’, ‘Di Godfada’ & ‘Phase 2 (What Next?)’. Others include; ‘Wahala O’, ‘Solid Block’, ‘Stop it Don’t Do That’, ‘No Place To Be Shy’ and ‘Suru Ni’.
Dele selected the tracks for the 3-CD compilation entitled Essential Afrobeat (2004). He was producer and co-writer of Calabash Volume 1: Afrobeat Poems by Ikwunga, the Afrobeat Poet (2004). He is a central member of the Wahala Project, whose single 'Wahala' appears on Puma's 2006 Soccer World Cup Compilation CD (2006).The tracks 'Turbulent Times' and 'Di Bombs' are on Sound Affects Africa (2006). Another track, 'Gbedu 1' is included on the compilation Afrobeat …No Go Die! (2000). Dele's eagerly awaited second album is Identity (2007), full of more of Dele's unique style.
Dele says that his children are very interested in his music and are currently learning different instruments. He goes on to say “I aspire to be great in what I do and this is a continuous thing. Also to be a role model to other musicians.” and “Life throws challenges all the time. The ability to take on the challenges to the best of your current ability will make you better prepared for the next ones.”
As a composer, singer and entertainer Dele has incorporated the piano into his Afro-groove and is popular for his percussive style of delivering the block chords first introduced and used tirelessly by Fela Anikulapo-Kuti. Dele Sosimi has been dubbed the King of Afrobeat piano and he works as an educator too.
Any one who has seen Dele on stage with his band will confirm that he is definitely the talk of the town! His own web site address is www.delesosimi.org
 
Отчет EAC
Exact Audio Copy V0.99 prebeta 5 from 4. May 2009
EAC extraction logfile from 26. March 2010, 14:46
Dele Sosimi / Turbulent Times
Used drive : _NEC DVD_RW ND-4550A Adapter: 1 ID: 1
Read mode : Secure
Utilize accurate stream : Yes
Defeat audio cache : Yes
Make use of C2 pointers : No
Read offset correction : 48
Overread into Lead-In and Lead-Out : No
Fill up missing offset samples with silence : Yes
Delete leading and trailing silent blocks : No
Null samples used in CRC calculations : No
Used interface : Native Win32 interface for Win NT & 2000
Used output format : Internal WAV Routines
Sample format : 44.100 Hz; 16 Bit; Stereo
TOC of the extracted CD
Track | Start | Length | Start sector | End sector
---------------------------------------------------------
1 | 0:00.01 | 9:47.32 | 1 | 44057
2 | 9:47.33 | 8:03.68 | 44058 | 80350
3 | 17:51.26 | 6:37.30 | 80351 | 110155
4 | 24:28.56 | 6:47.48 | 110156 | 140728
5 | 31:16.29 | 6:21.40 | 140729 | 169343
6 | 37:37.69 | 6:20.45 | 169344 | 197888
Range status and errors
Selected range
Filename Z:\Music\Dele Sosimi\Turbulent Times\Dele Sosimi - Turbulent Times.wav
Peak level 100.0 %
Range quality 100.0 %
Test CRC 9149AF71
Copy CRC 9149AF71
Copy OK
No errors occurred
AccurateRip summary
Track 1 not present in database
Track 2 not present in database
Track 3 not present in database
Track 4 not present in database
Track 5 not present in database
Track 6 not present in database
None of the tracks are present in the AccurateRip database
End of status report
 
.cue файл
REM GENRE Jazz+Funk
REM DATE 2002
REM DISCID 590A4E06
REM COMMENT "ExactAudioCopy v0.99pb5"
PERFORMER "Dele Sosimi"
TITLE "Turbulent Times"
FILE "Dele Sosimi - Turbulent Times.ape" WAVE
TRACK 01 AUDIO
TITLE "Turbulent Times (e get as e be)"
PERFORMER "Dele Sosimi"
INDEX 00 00:00:00
INDEX 01 00:00:01
TRACK 02 AUDIO
TITLE "Gbedu"
PERFORMER "Dele Sosimi"
INDEX 01 09:47:33
TRACK 03 AUDIO
TITLE "Phaze 2 (What Next?)"
PERFORMER "Dele Sosimi"
INDEX 01 17:51:26
TRACK 04 AUDIO
TITLE "Big Cat Fat Cat"
PERFORMER "Dele Sosimi"
INDEX 01 24:28:56
TRACK 05 AUDIO
TITLE "Di Godfada"
PERFORMER "Dele Sosimi"
INDEX 01 31:16:29
TRACK 06 AUDIO
TITLE "I no Like"
PERFORMER "Dele Sosimi"
INDEX 01 37:37:69
14:49
252
Нет комментариев. Ваш будет первым!