Поиск

(Jazz/Brazilian Jazz/Fusion/Latin Jazz) Flora Purim - Butterfly Dreams(1973) - 1987, FLAC (image+.cue), lossless

Треклист:
Flora Purim - Butterfly Dreams(1973)
Жанр: Jazz/Brazilian Jazz/Fusion/Latin Jazz
Год выпуска диска: 1987
Производитель диска: USA
Аудио кодек: FLAC
Тип рипа: image+.cue
Битрейт аудио: lossless
Продолжительность: 36:57
Трэклист:
01. Dr. Jive (part 1) [0:02:15.37]
02. Butterfly Dreams [0:07:01.20]
03. Dindi [0:03:37.08]
04. Summer Night [0:05:54.17]
05. Love Reborn [0:03:42.10]
06. Moon Dreams [0:05:01.28]
07. Dr. Jive (part 2) [0:03:40.35]
08. Light as a Feather [0:05:44.42]
Доп. информация: Credits:
Vocals - Flora Purim
Acoustic Guitar - David Amaro
Bass - Stanley Clarke
Clavinet - George Duke
Drums - Airto Moreira
Electric Piano - George Duke
Engineer - Jim Stern
Flute - Joe Henderson
Guitar [Electric] - David Amaro
Percussion - Airto Moreira
Piano - George Duke
Producer - Orrin Keepnews
Saxophone [Tenor] - Joe Henderson
Synthesizer - George Duke
Zither - Ernie Hood
Arranged By -
Flora Purim (tracks: 3)
George Duke (tracks: 5)
Stanley Clarke (tracks: 1, 2, 4, 6 - 8)
Источник:
Avaxhome
 
Отчет EAC
Exact Audio Copy V0.99 prebeta 3 from 28. July 2007
EAC extraction logfile from 29. July 2008, 19:00
Flora Purim / Butterfly Dreams
Used drive : SONY DVD RW DW-Q520A Adapter: 1 ID: 0
Read mode : Secure
Utilize accurate stream : Yes
Defeat audio cache : Yes
Make use of C2 pointers : No
Read offset correction : 594
Overread into Lead-In and Lead-Out : No
Fill up missing offset samples with silence : Yes
Delete leading and trailing silent blocks : No
Null samples used in CRC calculations : Yes
Used interface : Native Win32 interface for Win NT & 2000
Used output format : User Defined Encoder
Selected bitrate : 768 kBit/s
Quality : High
Add ID3 tag : No
Command line compressor : C:\Program Files\Exact Audio Copy\FLAC\FLAC.EXE
Additional command line options : -6 -V -T "ARTIST=%a" -T "TITLE=%t" -T "ALBUM=%g" -T "DATE=%y" -T "TRACKNUMBER=%n" -T "GENRE=%m" -T "COMMENT=%e" %s -o %d
TOC of the extracted CD
Track | Start | Length | Start sector | End sector
---------------------------------------------------------
1 | 0:00.00 | 2:15.37 | 0 | 10161
2 | 2:15.37 | 7:01.20 | 10162 | 41756
3 | 9:16.57 | 3:37.08 | 41757 | 58039
4 | 12:53.65 | 5:54.17 | 58040 | 84606
5 | 18:48.07 | 3:42.10 | 84607 | 101266
6 | 22:30.17 | 5:01.28 | 101267 | 123869
7 | 27:31.45 | 3:40.35 | 123870 | 140404
8 | 31:12.05 | 5:44.42 | 140405 | 166246
Range status and errors
Selected range
Filename C:\rip\Flora Purim - Butterfly Dreams.wav
Peak level 84.7 %
Range quality 100.0 %
Test CRC 318E6C93
Copy CRC 318E6C93
Copy OK
No errors occurred
AccurateRip summary
Track 1 accurately ripped (confidence 6) [1052F545]
Track 2 accurately ripped (confidence 6) [DC426433]
Track 3 accurately ripped (confidence 6) [C89F9F76]
Track 4 accurately ripped (confidence 6) [1569B138]
Track 5 accurately ripped (confidence 6) [83C6DB95]
Track 6 accurately ripped (confidence 6) [1F5858E6]
Track 7 accurately ripped (confidence 6) [ED1133C2]
Track 8 accurately ripped (confidence 6) [66AEE6DC]
All tracks accurately ripped
End of status report
 
Отчет Audiochecker
AUDIOCHECKER v2.0 beta (build 457) - by Dester - opdester@freemail.hu
~~~~~~~~~~~~~~~~~~~~~~~~~~~~~~~~~~
-=== DO NOT EDIT THIS FILE! ===-
Path: ...\Flora Purim - Butterfly Dreams
1 -=- Flora Purim - Butterfly Dreams.flac -=- CDDA (100%)
6983284
14:50
264
Нет комментариев. Ваш будет первым!