Поиск

(Vocal Jazz, Bossa, Pop) Dahlia - Beautiful, but Noir - 2006, APE (tracks+.cue), lossless

Треклист:
Dahlia - Beautiful, but Noir
Жанр: Vocal Jazz, Bossa, Pop
Год выпуска диска: 2006
Производитель диска: Canada
Аудио кодек: APE
Тип рипа: tracks+.cue
Битрейт аудио: lossless
Продолжительность: 34:30
Трэклист:
1. Eta Carinae
2. Rich Woman
3. Interlude ~ A Scheme ~
4. I'M Hip
5. Rose, Her Name Is Rose
6. Cienna'S
7. Beautiful, But Noir
8. Bossa Bambina
9. Sweety ~ Ending
Релиз от user787878.
 
eac extraction logfile
Exact Audio Copy V0.99 prebeta 5 from 4. May 2009
EAC extraction logfile from 22. February 2010, 6:31
dahlia / Beautiful, but Noir
Used drive : HL-DT-STDVDRAM GSA-H10A Adapter: 1 ID: 0
Read mode : Secure
Utilize accurate stream : Yes
Defeat audio cache : Yes
Make use of C2 pointers : No
Read offset correction : 6
Overread into Lead-In and Lead-Out : No
Fill up missing offset samples with silence : Yes
Delete leading and trailing silent blocks : No
Null samples used in CRC calculations : Yes
Used interface : Native Win32 interface for Win NT & 2000
Gap handling : Appended to previous track
Used output format : User Defined Encoder
Selected bitrate : 128 kBit/s
Quality : High
Add ID3 tag : No
Command line compressor : C:\Program Files\Exact Audio Copy\Flac\flac.exe
Additional command line options : -V -8 -T "artist=%a" -T "title=%t" -T "album=%g" -T "date=%y" -T "tracknumber=%n" -T "genre=%M" %s
TOC of the extracted CD
Track | Start | Length | Start sector | End sector
---------------------------------------------------------
1 | 0:00.00 | 5:33.38 | 0 | 25012
2 | 5:33.38 | 2:27.50 | 25013 | 36087
3 | 8:01.13 | 1:21.31 | 36088 | 42193
4 | 9:22.44 | 3:25.37 | 42194 | 57605
5 | 12:48.06 | 3:02.55 | 57606 | 71310
6 | 15:50.61 | 4:43.31 | 71311 | 92566
7 | 20:34.17 | 5:03.28 | 92567 | 115319
8 | 25:37.45 | 4:00.10 | 115320 | 133329
9 | 29:37.55 | 4:53.08 | 133330 | 155312
Track 1
Filename D:\My Document\Music\Dahlia - (2006)Beautiful, but Noir\01 - Eta Carinae.wav
Pre-gap length 0:00:02.00
Peak level 100.0 %
Track quality 100.0 %
Test CRC 4B59CEED
Copy CRC 4B59CEED
Copy OK
Track 2
Filename D:\My Document\Music\Dahlia - (2006)Beautiful, but Noir\02 - RICH WOMAN.wav
Peak level 100.0 %
Track quality 100.0 %
Test CRC C0B0FC89
Copy CRC C0B0FC89
Copy OK
Track 3
Filename D:\My Document\Music\Dahlia - (2006)Beautiful, but Noir\03 - Interlude ~ a scheme~.wav
Peak level 99.6 %
Track quality 100.0 %
Test CRC 79410EC7
Copy CRC 79410EC7
Copy OK
Track 4
Filename D:\My Document\Music\Dahlia - (2006)Beautiful, but Noir\04 - I'm Hip.wav
Pre-gap length 0:00:00.98
Peak level 98.7 %
Track quality 100.0 %
Test CRC C1C6F5F3
Copy CRC C1C6F5F3
Copy OK
Track 5
Filename D:\My Document\Music\Dahlia - (2006)Beautiful, but Noir\05 - Rose, her name is Rose.wav
Pre-gap length 0:00:02.00
Peak level 99.5 %
Track quality 100.0 %
Test CRC 81EDF045
Copy CRC 81EDF045
Copy OK
Track 6
Filename D:\My Document\Music\Dahlia - (2006)Beautiful, but Noir\06 - CIENNA's.wav
Pre-gap length 0:00:01.68
Peak level 98.4 %
Track quality 100.0 %
Test CRC 18B6CC38
Copy CRC 18B6CC38
Copy OK
Track 7
Filename D:\My Document\Music\Dahlia - (2006)Beautiful, but Noir\07 - Beautiful, but Noir.wav
Peak level 99.0 %
Track quality 100.0 %
Test CRC 41E42521
Copy CRC 41E42521
Copy OK
Track 8
Filename D:\My Document\Music\Dahlia - (2006)Beautiful, but Noir\08 - Bossa Bambina.wav
Pre-gap length 0:00:00.98
Peak level 99.1 %
Track quality 100.0 %
Test CRC 44CD63ED
Copy CRC 44CD63ED
Copy OK
Track 9
Filename D:\My Document\Music\Dahlia - (2006)Beautiful, but Noir\09 - sweety ~ Ending.wav
Pre-gap length 0:00:01.53
Peak level 100.0 %
Track quality 100.0 %
Test CRC 0D0F7BB8
Copy CRC 0D0F7BB8
Copy OK
No errors occurred
End of status report
 
audiochecker logfile
Started at: четверг, 25. 03. 2010. - 8:50.49
9 files found
1 -===- D:\Temp\Images\1\Dahlia - (2006)Beautiful, but Noir\01 - Eta Carinae.flac
Extracted successfully
Conclusion: this track is CDDA with probability 100%
Tempfile successfully deleted.
2 -===- D:\Temp\Images\1\Dahlia - (2006)Beautiful, but Noir\02 - RICH WOMAN.flac
Extracted successfully
Conclusion: this track is CDDA with probability 100%
Tempfile successfully deleted.
3 -===- D:\Temp\Images\1\Dahlia - (2006)Beautiful, but Noir\03 - Interlude ~ a scheme~.flac
Extracted successfully
Conclusion: this track is CDDA with probability 100%
Tempfile successfully deleted.
4 -===- D:\Temp\Images\1\Dahlia - (2006)Beautiful, but Noir\04 - I'm Hip.flac
Extracted successfully
Conclusion: this track is CDDA with probability 99%
Tempfile successfully deleted.
5 -===- D:\Temp\Images\1\Dahlia - (2006)Beautiful, but Noir\05 - Rose, her name is Rose.flac
Extracted successfully
Conclusion: this track is CDDA with probability 100%
Tempfile successfully deleted.
6 -===- D:\Temp\Images\1\Dahlia - (2006)Beautiful, but Noir\06 - CIENNA's.flac
Extracted successfully
Conclusion: this track is CDDA with probability 100%
Tempfile successfully deleted.
7 -===- D:\Temp\Images\1\Dahlia - (2006)Beautiful, but Noir\07 - Beautiful, but Noir.flac
Extracted successfully
Conclusion: this track is CDDA with probability 100%
Tempfile successfully deleted.
8 -===- D:\Temp\Images\1\Dahlia - (2006)Beautiful, but Noir\08 - Bossa Bambina.flac
Extracted successfully
Conclusion: this track is CDDA with probability 100%
Tempfile successfully deleted.
9 -===- D:\Temp\Images\1\Dahlia - (2006)Beautiful, but Noir\09 - sweety ~ Ending.flac
Extracted successfully
Conclusion: this track is CDDA with probability 100%
Tempfile successfully deleted.
Finished at: четверг, 25. 03. 2010. - 8:54.54 (operation time: 0:04.05)
 
Cue
REM GENRE Pop
REM DATE 2006
REM DISCID 7F081609
REM COMMENT "ExactAudioCopy v0.99pb5"
PERFORMER "dahlia"
TITLE "Beautiful, but Noir"
FILE "01 - Eta Carinae.wav" WAVE
TRACK 01 AUDIO
TITLE "Eta Carinae"
PERFORMER "dahlia"
INDEX 01 00:00:00
FILE "02 - RICH WOMAN.wav" WAVE
TRACK 02 AUDIO
TITLE "RICH WOMAN"
PERFORMER "dahlia"
INDEX 01 00:00:00
FILE "03 - Interlude ~ a scheme~.wav" WAVE
TRACK 03 AUDIO
TITLE "Interlude ~ a scheme~"
PERFORMER "dahlia"
INDEX 01 00:00:00
TRACK 04 AUDIO
TITLE "I'm Hip"
PERFORMER "dahlia"
INDEX 00 01:20:32
FILE "04 - I'm Hip.wav" WAVE
INDEX 01 00:00:00
TRACK 05 AUDIO
TITLE "Rose, her name is Rose"
PERFORMER "dahlia"
INDEX 00 03:23:37
FILE "05 - Rose, her name is Rose.wav" WAVE
INDEX 01 00:00:00
TRACK 06 AUDIO
TITLE "CIENNA's"
PERFORMER "dahlia"
INDEX 00 03:01:04
FILE "06 - CIENNA's.wav" WAVE
INDEX 01 00:00:00
FILE "07 - Beautiful, but Noir.wav" WAVE
TRACK 07 AUDIO
TITLE "Beautiful, but Noir"
PERFORMER "dahlia"
INDEX 01 00:00:00
TRACK 08 AUDIO
TITLE "Bossa Bambina"
PERFORMER "dahlia"
INDEX 00 05:02:29
FILE "08 - Bossa Bambina.wav" WAVE
INDEX 01 00:00:00
TRACK 09 AUDIO
TITLE "sweety ~ Ending"
PERFORMER "dahlia"
INDEX 00 03:58:45
FILE "09 - sweety ~ Ending.wav" WAVE
INDEX 01 00:00:00
Cмотрим видео на Тытубе.Приятных впечатлений!
14:49
284
Нет комментариев. Ваш будет первым!