Поиск

(jazz, acoustic, balcan) Hradcany - Balkanic Jazz - 2006, FLAC (tracks+.cue), lossless

Hradcany - Balkanic Jazz
Жанр: jazz, acoustic, balcan
Год выпуска диска: 2006
Аудио кодек: FLAC
Тип рипа: tracks+.cue + Complete Artwork
Битрейт аудио: lossless
Продолжительность: 00:47:15
Трэклист:
01. Trifoniv Market's Place
02. Kavalla
03. Yeden
04. Chjusella
05. Migracion
06. Zap-ala-Paz
07. Kangan
08. Alay Bey
 
log
Exact Audio Copy V0.99 prebeta 5 from 4. May 2009
EAC extraction logfile from 2. April 2010, 23:38
Hradcany / Balkanic Jazz
Used drive : PLEXTOR DVDR PX-860A Adapter: 0 ID: 0
Read mode : Secure
Utilize accurate stream : Yes
Defeat audio cache : Yes
Make use of C2 pointers : No
Read offset correction : 96
Overread into Lead-In and Lead-Out : No
Fill up missing offset samples with silence : Yes
Delete leading and trailing silent blocks : No
Null samples used in CRC calculations : Yes
Used interface : Native Win32 interface for Win NT & 2000
Gap handling : Appended to previous track
Used output format : User Defined Encoder
Selected bitrate : 768 kBit/s
Quality : High
Add ID3 tag : No
Command line compressor : C:\Program Files\FLAC\flac.exe
Additional command line options : -8 -V -T "ARTIST=%a" -T "TITLE=%t" -T "ALBUM=%g" -T "DATE=%y" -T "TRACKNUMBER=%n" -T "TOTALTRACKS=%x" -T "GENRE=%m" -T "ALBUM ARTIST=%v" -T "ALBUMARTIST=%v" -T "COMMENT=EAC V0.99 prebeta 5, Secure Mode, Test & Copy, Accurat
TOC of the extracted CD
Track | Start | Length | Start sector | End sector
---------------------------------------------------------
1 | 0:00.00 | 5:01.19 | 0 | 22593
2 | 5:01.19 | 6:46.22 | 22594 | 53065
3 | 11:47.41 | 6:35.56 | 53066 | 82746
4 | 18:23.22 | 7:53.30 | 82747 | 118251
5 | 26:16.52 | 4:25.35 | 118252 | 138161
6 | 30:42.12 | 5:12.71 | 138162 | 161632
7 | 35:55.08 | 6:28.74 | 161633 | 190806
8 | 42:24.07 | 5:05.15 | 190807 | 213696
Track 1
Filename M:\DL\Hradcany - Balkanic Jazz (2006) [FLAC]\01 - trifonov market's place.wav
Pre-gap length 0:00:02.00
Peak level 100.0 %
Track quality 100.0 %
Test CRC EA4B03EC
Copy CRC EA4B03EC
Track not present in AccurateRip database
Copy OK
Track 2
Filename M:\DL\Hradcany - Balkanic Jazz (2006) [FLAC]\02 - kavalla.wav
Pre-gap length 0:00:01.98
Peak level 100.0 %
Track quality 100.0 %
Test CRC D0C34A56
Copy CRC D0C34A56
Track not present in AccurateRip database
Copy OK
Track 3
Filename M:\DL\Hradcany - Balkanic Jazz (2006) [FLAC]\03 - yeden.wav
Pre-gap length 0:00:02.00
Peak level 100.0 %
Track quality 100.0 %
Test CRC 37292137
Copy CRC 37292137
Track not present in AccurateRip database
Copy OK
Track 4
Filename M:\DL\Hradcany - Balkanic Jazz (2006) [FLAC]\04 - chjusella.wav
Pre-gap length 0:00:02.00
Peak level 96.3 %
Track quality 100.0 %
Test CRC 21FF3C7D
Copy CRC 21FF3C7D
Track not present in AccurateRip database
Copy OK
Track 5
Filename M:\DL\Hradcany - Balkanic Jazz (2006) [FLAC]\05 - migracion.wav
Pre-gap length 0:00:01.98
Peak level 100.0 %
Track quality 100.0 %
Test CRC 79E60D95
Copy CRC 79E60D95
Track not present in AccurateRip database
Copy OK
Track 6
Filename M:\DL\Hradcany - Balkanic Jazz (2006) [FLAC]\06 - zap-ala-paz.wav
Pre-gap length 0:00:01.98
Peak level 100.0 %
Track quality 100.0 %
Test CRC 3F9DB884
Copy CRC 3F9DB884
Track not present in AccurateRip database
Copy OK
Track 7
Filename M:\DL\Hradcany - Balkanic Jazz (2006) [FLAC]\07 - kangan.wav
Pre-gap length 0:00:02.00
Peak level 94.1 %
Track quality 100.0 %
Test CRC 514AB0B7
Copy CRC 514AB0B7
Track not present in AccurateRip database
Copy OK
Track 8
Filename M:\DL\Hradcany - Balkanic Jazz (2006) [FLAC]\08 - alay bey.wav
Pre-gap length 0:00:02.00
Peak level 100.0 %
Track quality 99.9 %
Test CRC 6C6EF7FA
Copy CRC 6C6EF7FA
Track not present in AccurateRip database
Copy OK
None of the tracks are present in the AccurateRip database
No errors occurred
End of status report
 
cue
Код:
REM GENRE Jazz
REM DATE 2006
REM DISCID 650B2108
REM COMMENT "ExactAudioCopy v0.99pb5"
PERFORMER "Hradcany"
TITLE "Balkanic Jazz"
FILE "01 - trifonov market's place.flac" WAVE
  TRACK 01 AUDIO
    TITLE "trifonov market's place"
    PERFORMER "Hradcany"
    FLAGS DCP
    INDEX 01 00:00:00
  TRACK 02 AUDIO
    TITLE "kavalla"
    PERFORMER "Hradcany"
    FLAGS DCP
    INDEX 00 04:59:20
FILE "02 - kavalla.flac" WAVE
    INDEX 01 00:00:00
  TRACK 03 AUDIO
    TITLE "yeden"
    PERFORMER "Hradcany"
    FLAGS DCP
    INDEX 00 06:44:22
FILE "03 - yeden.flac" WAVE
    INDEX 01 00:00:00
  TRACK 04 AUDIO
    TITLE "chjusella"
    PERFORMER "Hradcany"
    FLAGS DCP
    INDEX 00 06:33:56
FILE "04 - chjusella.flac" WAVE
    INDEX 01 00:00:00
  TRACK 05 AUDIO
    TITLE "migracion"
    PERFORMER "Hradcany"
    FLAGS DCP
    INDEX 00 07:51:31
FILE "05 - migracion.flac" WAVE
    INDEX 01 00:00:00
  TRACK 06 AUDIO
    TITLE "zap-ala-paz"
    PERFORMER "Hradcany"
    FLAGS DCP
    INDEX 00 04:23:36
FILE "06 - zap-ala-paz.flac" WAVE
    INDEX 01 00:00:00
  TRACK 07 AUDIO
    TITLE "kangan"
    PERFORMER "Hradcany"
    FLAGS DCP
    INDEX 00 05:10:71
FILE "07 - kangan.flac" WAVE
    INDEX 01 00:00:00
  TRACK 08 AUDIO
    TITLE "alay bey"
    PERFORMER "Hradcany"
    FLAGS DCP
    INDEX 00 06:26:74
FILE "08 - alay bey.flac" WAVE
    INDEX 01 00:00:00

Доп. информация:
Пластинка музыкантов стала итогом нескольких плодотворных лет работы, находящей истоки в музыке Турции и Восточной Европы. Используя традиционные мелодии и ритмы, 4 музыканта компилируют его с современными средствами исполнения, раскрывающего импровизационный талант солистов.
Состав:
Serge Adam (trompette)
Philippe Botta (saxophone, flûte)
David Venitucci (accordéon)
Bijan Chemirani (percussions)

Диск взят с другого трекера. Спасибо dtromp
14:55
449
Нет комментариев. Ваш будет первым!