Поиск

2006 Sacred Spirit vol.10: Tango Jointz - Palermo Nuevo {Ego Music ‎EGOCD032} [CD]

2006 Sacred Spirit vol.10: Tango Jointz - Palermo Nuevo {Ego Music ‎EGOCD032} [CD]
Стили:
Страна-производитель диска (релиза):
Argentina

Треклист:

1. Tango (feat. Ricardo 'Ricardito' Reveira)
2. Libertango (feat. Bellma Cespedes)
3. Alone Together
4. Tango D'amor (feat. Bellma Cespedes)
5. The Gaucho's Pain
6. Tu Sentimiento (feat. Bellma Cespedes)
7. Espiritu
8. Vuelve Al Sur (feat. Ricardo 'Ricardito' Reveira)
9. i Mi Libertad ! (feat. Ricardo 'Ricardito' Reveira)
10. Nuit Sur Les Champs Elysees
11. Tango, Que Misterio (feat. Ricardo 'Ricardito' Reveira)

Лог создания рипа
Exact Audio Copy V0.99 prebeta 5 from 4. May 2009

Отчёт EAC об извлечении, выполненном 4. апреля 2010, 1:42

Tango Jointz / Palermo Nuevo

Дисковод: HL-DT-STDVDRAM GSA-T20N Adapter: 0 ID: 0

Режим чтения : Достоверность
Использование точного потока : Да
Отключение кэша аудио : Да
Использование указателей C2 : Нет

Комбинированное смещение чтения/записи : 667
Способность читать области Lead-in и Lead-out : Нет
Заполнение пропущенных сэмплов тишиной : Да
Удаление блоков с тишиной в начале и конце : Нет
При вычислениях CRC использовались нулевые сэмплы : Да
Интерфейс : Встроенный Win32-интерфейс для Win NT/2000

Выходной формат : Пользовательский кодировщик
Выбранный битрейт : 896 kBit/s
Качество : Высокий
Добавление ID3-тэга : Нет
Утилита сжатия : C:\Program Files\Exact Audio Copy\FLAC\FLAC.EXE
Дополнительные параметры : -6 -V -T "ARTIST=%a" -T "TITLE=%t" -T "ALBUM=%g" -T "DATE=%y" -T "TRACKNUMBER=%n" -T "GENRE=%m" -T "COMMENT=%e" %s -o %d

TOC извлечённого CD

Трек | Старт | Длительность | Начальный сектор | Конечный сектор
---------------------------------------------------------------------
1 | 0:00.00 | 3:47.06 | 0 | 17030
2 | 3:47.06 | 4:34.45 | 17031 | 37625
3 | 8:21.51 | 3:52.19 | 37626 | 55044
4 | 12:13.70 | 4:14.49 | 55045 | 74143
5 | 16:28.44 | 3:35.30 | 74144 | 90298
6 | 20:03.74 | 3:54.60 | 90299 | 107908
7 | 23:58.59 | 4:30.49 | 107909 | 128207
8 | 28:29.33 | 4:47.16 | 128208 | 149748
9 | 33:16.49 | 2:36.70 | 149749 | 161518
10 | 35:53.44 | 2:52.12 | 161519 | 174430
11 | 38:45.56 | 4:31.15 | 174431 | 194770

Характеристики диапазона извлечения и сообщения об ошибках

Выбранный диапазон

Имя файла C:\Users\CEVORA\Desktop\Tango Jointz - Palermo Nuevo.wav

Пиковый уровень 100.0 %
Качество диапазона 100.0 %
CRC копии DED23622
Копирование... OK

Ошибок не произошло

Конец отчёта
14:54
810
17:11
Спасибо!