Поиск

(Latin Jazz) Irakere — The Best Of Irakere — 1994, FLAC (tracks+.cue), lossless

Треклист:
Irakere — The Best Of Irakere
Жанр: Latin Jazz
Год выпуска диска: 1994
Label: Columbia/Legacy (CK 57719)
Аудио кодек: FLAC
Тип рипа: tracks+.cue
Битрейт аудио: lossless
Продолжительность: 75:08
Трeклист:
01. Gira Gira (5:47)
02. Claudia (6:05)
03. Ilya (9:20)
04. Añunga Ñunga (6:05)
05. Ciento Años De Juventud (7:49)
06. Aguanile (5:00)
07. Misa Negra (The Black Mass) (17:40)
08. Adagio On A Mozart Theme (5:47)
09. Xiomara (6:15)
10. Por Romper El Coco (5:22)
Сканы: 300 dpi
 
Источник:
 
 
.log
Exact Audio Copy V0.99 prebeta 5 from 4. May 2009
EAC extraction logfile from 6. October 2009, 10:54
Irakere / The Best Of
Used drive : PLEXTOR CD-R PREMIUM2 Adapter: 1 ID: 1
Read mode : Secure
Utilize accurate stream : Yes
Defeat audio cache : Yes
Make use of C2 pointers : No
Read offset correction : 30
Overread into Lead-In and Lead-Out : No
Fill up missing offset samples with silence : Yes
Delete leading and trailing silent blocks : No
Null samples used in CRC calculations : Yes
Used interface : Installed external ASPI interface
Gap handling : Appended to previous track
Used output format : User Defined Encoder
Selected bitrate : 32 kBit/s
Quality : High
Add ID3 tag : No
Command line compressor : C:\Programmi\FLAC\flac.exe
Additional command line options : -8 -V -T "ARTIST=%a" -T "TITLE=%t" -T "ALBUM=%g" -T "DATE=%y" -T "TRACKNUMBER=%n" -T "GENRE=%m" -T "COMMENT=EAC FLAC -8" %s
TOC of the extracted CD
Track | Start | Length | Start sector | End sector
---------------------------------------------------------
1 | 0:00.00 | 5:46.45 | 0 | 25994
2 | 5:46.45 | 6:05.17 | 25995 | 53386
3 | 11:51.62 | 9:20.18 | 53387 | 95404
4 | 21:12.05 | 6:04.45 | 95405 | 122749
5 | 27:16.50 | 7:49.00 | 122750 | 157924
6 | 35:05.50 | 4:59.47 | 157925 | 180396
7 | 40:05.22 | 17:39.58 | 180397 | 259879
8 | 57:45.05 | 5:46.55 | 259880 | 285884
9 | 63:31.60 | 6:14.40 | 285885 | 313974
10 | 69:46.25 | 5:22.12 | 313975 | 338136
Track 1
Filename D:\My Rip\01 - Gira Gira.wav
Pre-gap length 0:00:02.00
Peak level 100.0 %
Track quality 100.0 %
Test CRC A2C13195
Copy CRC A2C13195
Accurately ripped (confidence 3) [3959458D]
Copy OK
Track 2
Filename D:\My Rip\02 - Claudia.wav
Pre-gap length 0:00:02.84
Peak level 86.5 %
Track quality 100.0 %
Test CRC 2C85CCB8
Copy CRC 2C85CCB8
Accurately ripped (confidence 3) [EDA4AC7D]
Copy OK
Track 3
Filename D:\My Rip\03 - Ilya.wav
Pre-gap length 0:00:02.82
Peak level 94.1 %
Track quality 100.0 %
Test CRC F7658234
Copy CRC F7658234
Accurately ripped (confidence 3) [2743ADA6]
Copy OK
Track 4
Filename D:\My Rip\04 - Anunga Nunga.wav
Pre-gap length 0:00:02.84
Peak level 99.9 %
Track quality 99.9 %
Test CRC C65EA6AF
Copy CRC C65EA6AF
Accurately ripped (confidence 3) [8C45FC9B]
Copy OK
Track 5
Filename D:\My Rip\05 - Ciento Anos De Juventud.wav
Pre-gap length 0:00:02.84
Peak level 96.8 %
Track quality 100.0 %
Test CRC AE195E97
Copy CRC AE195E97
Accurately ripped (confidence 3) [0A4D787C]
Copy OK
Track 6
Filename D:\My Rip\06 - Aguanile.wav
Pre-gap length 0:00:01.84
Peak level 74.0 %
Track quality 100.0 %
Test CRC DAFCAE5C
Copy CRC DAFCAE5C
Accurately ripped (confidence 3) [A2D7B5F3]
Copy OK
Track 7
Filename D:\My Rip\07 - Misa Negra (The Black Mass).wav
Pre-gap length 0:00:02.29
Peak level 86.2 %
Track quality 100.0 %
Test CRC 8806D234
Copy CRC 8806D234
Accurately ripped (confidence 3) [5A04818E]
Copy OK
Track 8
Filename D:\My Rip\08 - Adagio On A Mozart Theme.wav
Pre-gap length 0:00:02.33
Peak level 90.8 %
Track quality 100.0 %
Test CRC 1FE731CD
Copy CRC 1FE731CD
Accurately ripped (confidence 3) [8C75E0E3]
Copy OK
Track 9
Filename D:\My Rip\09 - Xiomara.wav
Pre-gap length 0:00:02.84
Peak level 99.9 %
Track quality 99.7 %
Test CRC 99A82087
Copy CRC 99A82087
Accurately ripped (confidence 3) [790929D9]
Copy OK
Track 10
Filename D:\My Rip\10 - Por Romper El Coco.wav
Pre-gap length 0:00:01.97
Peak level 99.9 %
Track quality 99.5 %
Test CRC CEBE7B62
Copy CRC CEBE7B62
Cannot be verified as accurate (confidence 3) [0A79A46F], AccurateRip returned [22EC7B96]
Copy OK
9 track(s) accurately ripped
1 track(s) could not be verified as accurate
Some tracks could not be verified as accurate
No errors occurred
End of status report
 
.cue
REM GENRE Latin
REM DATE 1994
REM DISCID 8B119C0A
REM COMMENT "ExactAudioCopy v0.99pb4"
PERFORMER "Irakere"
TITLE "The Best Of"
FILE "Range.flac" WAVE
TRACK 01 AUDIO
TITLE "Gira Gira"
PERFORMER "Irakere"
INDEX 01 00:00:00
TRACK 02 AUDIO
TITLE "Claudia"
PERFORMER "Irakere"
INDEX 00 05:43:57
INDEX 01 05:46:45
TRACK 03 AUDIO
TITLE "Ilya"
PERFORMER "Irakere"
INDEX 00 11:49:00
INDEX 01 11:51:62
TRACK 04 AUDIO
TITLE "Anunga Nunga"
PERFORMER "Irakere"
INDEX 00 21:09:17
INDEX 01 21:12:05
TRACK 05 AUDIO
TITLE "Ciento Anos De Juventud"
PERFORMER "Irakere"
INDEX 00 27:13:62
INDEX 01 27:16:50
TRACK 06 AUDIO
TITLE "Aguanile"
PERFORMER "Irakere"
INDEX 00 35:03:62
INDEX 01 35:05:50
TRACK 07 AUDIO
TITLE "Misa Negra (The Black Mass)"
PERFORMER "Irakere"
INDEX 00 40:03:00
INDEX 01 40:05:22
TRACK 08 AUDIO
TITLE "Adagio On A Mozart Theme"
PERFORMER "Irakere"
INDEX 00 57:42:55
INDEX 01 57:45:05
TRACK 09 AUDIO
TITLE "Xiomara"
PERFORMER "Irakere"
INDEX 00 63:28:72
INDEX 01 63:31:60
TRACK 10 AUDIO
TITLE "Por Romper El Coco"
PERFORMER "Irakere"
INDEX 00 69:02:64
INDEX 01 69:46:25
   :arrow: Мои раздачи на трекере
14:53
418
Нет комментариев. Ваш будет первым!