Поиск

(World Fusion) World Drummers Ensemble - A Coat of Many Colors - 2006, FLAC (image+.cue)

Треклист:
World Drummers Ensemble - A Coat of Many Colors
Жанр: World Fusion
Год выпуска диска: 2006
Производитель диска: USA (Summerfold)
Аудио кодек: FLAC
Тип рипа: image+.cue
Продолжительность: 0:58:28
01. Conundrum 01:21
02. Majorette 11:15
03. Prism 12:42
04. Baye Kene N'Diaye 05:04
05. Ritm Komposisyon 09:09
06. A Coat of Many Colors 04:48
07. Self Portrait 07:06
08. Sa N'diaye 07:01
Bill Bruford - Drums, Drums (Electric)
Chad Wackerman - Drums
Doudou N'Daiye Rose - Sabar
Luis Conte - Percussion, Conga, Timbales, Cajon Сканы внутри
 
LOG
Exact Audio Copy V0.99 prebeta 3 from 28. July 2007
EAC extraction logfile from 1. April 2010, 14:02
World Drummers Ensemble / A Coat of Many Colors
Used drive : TSSTcorpCDDVDW SE-S204N Adapter: 6 ID: 4
Read mode : Secure
Utilize accurate stream : Yes
Defeat audio cache : Yes
Make use of C2 pointers : No
Read offset correction : 6
Overread into Lead-In and Lead-Out : No
Fill up missing offset samples with silence : Yes
Delete leading and trailing silent blocks : No
Null samples used in CRC calculations : Yes
Used interface : Installed external ASPI interface
Used output format : User Defined Encoder
Selected bitrate : 768 kBit/s
Quality : High
Add ID3 tag : No
Command line compressor : H:\Program Files\Exact Audio Copy\FLAC\FLAC.EXE
Additional command line options : -6 -V -T "ARTIST=%a" -T "TITLE=%t" -T "ALBUM=%g" -T "DATE=%y" -T "TRACKNUMBER=%n" -T "GENRE=%m" -T "COMMENT=%e" %s -o %d
TOC of the extracted CD
Track | Start | Length | Start sector | End sector
---------------------------------------------------------
1 | 0:00.00 | 1:21.03 | 0 | 6077
2 | 1:21.03 | 11:15.52 | 6078 | 56754
3 | 12:36.55 | 12:42.47 | 56755 | 113951
4 | 25:19.27 | 5:04.64 | 113952 | 136815
5 | 30:24.16 | 9:09.06 | 136816 | 177996
6 | 39:33.22 | 4:48.19 | 177997 | 199615
7 | 44:21.41 | 7:06.05 | 199616 | 231570
8 | 51:27.46 | 7:01.26 | 231571 | 263171
Range status and errors
Selected range
Filename I:\RRR\World Drummers Ensemble - A Coat of Many Colors\World Drummers Ensemble - A Coat of Many Colors.wav
Peak level 99.5 %
Range quality 100.0 %
Test CRC F415B321
Copy CRC F415B321
Copy OK
No errors occurred
AccurateRip summary
Track 1 not present in database
Track 2 not present in database
Track 3 not present in database
Track 4 not present in database
Track 5 not present in database
Track 6 not present in database
Track 7 not present in database
Track 8 not present in database
None of the tracks are present in the AccurateRip database
End of status report
14:56
328
Нет комментариев. Ваш будет первым!