Поиск

(Harmolodic Noise Funk, free-improvisation, Tzadik) Derek Bailey / Jamaaladeen Tacuma / Calvin Weston - Mirakle - 2000, FLAC (image + .cue), lossless

(Harmolodic Noise Funk, free-improvisation, Tzadik) Derek Bailey / Jamaaladeen Tacuma / Calvin Weston - Mirakle - 2000, FLAC (image + .cue), lossless
Треклист:
Derek Bailey / Jamaaladeen Tacuma / Calvin Weston - Mirakle
Страна: USA
Жанр: Harmolodic Noise Funk, free-improvisation, Tzadik
Год выпуска: 2000
Формат: FLAC (image + .cue)
Битрейт аудио: lossless
Продолжительность: 70.47
Трэклист:
1. This Time
2. What It Is
3. Moment
4. Nebeula
5. Present
6. s’Now
Доп. информация: Derek Bailey: Guitar
Jamaaladeen Tacuma: Bass
Calvin Weston: Drums
этот диск упорно умудряется оставаться одним из моих самых любимых на протяжении вот уже четырех-пяти что ли лет. Наверное, это самый драйвовый (во многом благодаря сногсшибательной ритм-секции) Бэйли, причем - как бы это ни неправдоподобно звучало - это чуть ли не единственный (а скорее единственный) Бэйли (верный своей абсолютной алогичности), под которого можно танцевать - да да, имеено так - по крайней мере я себя за таким занятием периодически ловлю (это при том, что увидеть меня танцующим подо что нибудь традиционное - вообще - нонсенс).. очень и очень рекомендую. и, как крайне точно написано в пресс-релизе Цадика (да простят меня модераторы за английский текст, но на русский это не переводится без ущерба) - Noise has never sounded so in tune, funk has never sounded so fucked up.
Enjoy!
 
EAC log
Exact Audio Copy V0.99 prebeta 4 from 23. January 2008
Отчёт EAC об извлечении, выполненном 18. мая 2008, 17:54
Derek Bailey / Mirakle
Дисковод: Optiarc DVD RW AD-7170A Adapter: 0 ID: 1
Режим чтения : Достоверность
Использование точного потока : Да
Отключение кэша аудио : Да
Использование указателей C2 : Нет
Коррекция смещения при чтении : 48
Способность читать области Lead-in и Lead-out : Нет
Заполнение пропущенных сэмплов тишиной : Да
Удаление блоков с тишиной в начале и конце : Нет
При вычислениях CRC использовались нулевые сэмплы : Нет
Интерфейс : Встроенный Win32-интерфейс для Win NT/2000
Выходной формат : Пользовательский кодировщик
Выбранный битрейт : 768 kBit/s
Качество : Высокий
Добавление ID3-тэга : Нет
Утилита сжатия : C:\Program Files\Exact Audio Copy\FLAC\FLAC.EXE
Дополнительные параметры : -6 -V -T "ARTIST=%a" -T "TITLE=%t" -T "ALBUM=%g" -T "DATE=%y" -T "TRACKNUMBER=%n" -T "GENRE=%m" -T "COMMENT=%e" %s -o %d
TOC извлечённого CD
Трек | Старт | Длительность | Начальный сектор | Конечный сектор
---------------------------------------------------------------------
1 | 0:00.00 | 16:35.17 | 0 | 74641
2 | 16:35.17 | 9:01.10 | 74642 | 115226
3 | 25:36.27 | 16:00.25 | 115227 | 187251
4 | 41:36.52 | 8:53.25 | 187252 | 227251
5 | 50:30.02 | 12:26.28 | 227252 | 283229
6 | 62:56.30 | 7:50.25 | 283230 | 318504
Характеристики диапазона извлечения и сообщения об ошибках
Выбранный диапазон
Имя файла C:\Music\Derek Bailey - Mirakle.wav
Пиковый уровень 100.0 %
Качество диапазона 100.0 %
CRC копии 70733FC8
Копирование... OK
Ошибок не произошло
AccurateRip: сводка
Трек 1 нет в базе данных
Трек 2 нет в базе данных
Трек 3 нет в базе данных
Трек 4 нет в базе данных
Трек 5 нет в базе данных
Трек 6 нет в базе данных
Ни одного трека нет в базе AccurateRip
Конец отчёта
Приватный:
Нет (DHT включён)
Размер:
411.16 Мб (431,128,967 байт) » файлов: 3
Участники:
0 раздают, 42 качают (42 участников всего)
Внешние участники:
5 раздают, 2 качают (7 участников всего) [ Обновить ]
No seeders - write a personal message to user M0p94ok. Нет сидеров - пишите личное сообщение пользователю M0p94ok.
01:13
89
Нет комментариев. Ваш будет первым!