Поиск

(Jazz) Art Ensemble of Chicago - The Meeting - 2003, FLAC (image + .cue), lossless

(Jazz) Art Ensemble of Chicago - The Meeting - 2003, FLAC (image + .cue), lossless
Треклист:
Art Ensemble of Chicago - The Meeting
Страна: USA
Жанр: Jazz
Год выпуска: 2003
Формат: FLAC (image + .cue)
Битрейт аудио: lossless
Продолжительность: 59:29
Hail We Now Sing Joy
It's the Sign of the Times
Tech Ritter and the Megabytes
Wind and Drum
The Meeting
Amin Bidness
The Train To Io
 
EAC Report
Exact Audio Copy V0.99 prebeta 4 from 23. January 2008
EAC extraction logfile from 17. April 2008, 0:01
Art Ensemble of Chicago / The Meeting
Used drive : TSSTcorpCD/DVDW SH-S182M Adapter: 2 ID: 0
Read mode : Secure
Utilize accurate stream : Yes
Defeat audio cache : Yes
Make use of C2 pointers : No
Read offset correction : 6
Overread into Lead-In and Lead-Out : No
Fill up missing offset samples with silence : Yes
Delete leading and trailing silent blocks : No
Null samples used in CRC calculations : No
Used interface : Installed external ASPI interface
Used output format : User Defined Encoder
Selected bitrate : 1024 kBit/s
Quality : High
Add ID3 tag : No
Command line compressor : C:\Program Files\Exact Audio Copy\FLAC\FLAC.EXE
Additional command line options : -6 -V -T "ARTIST=%a" -T "TITLE=%t" -T "ALBUM=%g" -T "DATE=%y" -T "TRACKNUMBER=%n" -T "GENRE=%m" -T "COMMENT=%e" %s -o %d
TOC of the extracted CD
Track | Start | Length | Start sector | End sector
---------------------------------------------------------
1 | 0:00.00 | 4:56.07 | 0 | 22206
2 | 4:56.07 | 18:44.27 | 22207 | 106533
3 | 23:40.34 | 4:22.62 | 106534 | 126245
4 | 28:03.21 | 11:09.07 | 126246 | 176427
5 | 39:12.28 | 6:49.51 | 176428 | 207153
6 | 46:02.04 | 8:33.28 | 207154 | 245656
7 | 54:35.32 | 4:53.74 | 245657 | 267705
Range status and errors
Selected range
Filename F:\z\Art Ensemble of Chicago - The Meeting.wav
Peak level 95.5 %
Range quality 100.0 %
Copy CRC 04D83321
Copy OK
No errors occurred
AccurateRip summary
Track 1 not present in database
Track 2 not present in database
Track 3 not present in database
Track 4 not present in database
Track 5 not present in database
Track 6 not present in database
Track 7 not present in database
None of the tracks are present in the AccurateRip database
End of status report
Приватный:
Нет (DHT включён)
Размер:
305.19 Мб (320,017,965 байт) » файлов: 6
Участники:
0 раздают, 0 качают (0 участников всего)
Внешние участники:
5 раздают, 1 качают (6 участников всего) [ Обновить ]
Есть вопросы - пишите личное сообщение пользователю M0p94ok.
01:13
31
Нет комментариев. Ваш будет первым!