Поиск

(Free improv, emanem, e2e) John Russell - Analekta - 2007, APE (image + .cue), lossless

Треклист:
John Russell - Analekta
Страна: England
Жанр: Free improvisation
Год выпуска: 2007
Формат: APE (image + .cue)
Битрейт аудио: lossless
Продолжительность: 78:17
Трэклист:
1. THE BITE
2. BLART
3. CHAMARILEROS
4. SO IT GOES
Доп. информация:
JOHN RUSSELL: guitar
GARRY TODD: tenor saxophone [1]
HENRY LOWTHER: trumpet [2]
CHEFA ALONSO: soprano saxophone, percussion [3]
NICOLE LEGROS: voice [4]
JEAN-MICHEL VAN SCHOUWBURG: voice [4]
STEFAN KEUNE alto saxophone [4]
PHILIPP WACHSMANN: violin, electronics [4]
ASHLEY WALES: piano [4]
IVOR KALLIN: double bass [4]
JAVIER CARMONA: percussion [4]
STEVE BERESFORD: electronics, objects [4]
Label: Emanem
Digital concert recordings made in London at the Red Rose
by Tim Fletcher (1-3) & Sebastian Lexer (4)
1 - 2006 March 19
2 - 2004 November 21
3 - 2006 June 18
4 - 2006 April 30
 
EAC log
Exact Audio Copy V0.99 prebeta 4 from 23. January 2008
EAC extraction logfile from 18. May 2008, 17:01
John Russell / Analekta
Used drive : PIONEER DVD-RW DVR-109 Adapter: 1 ID: 0
Read mode : Secure
Utilize accurate stream : Yes
Defeat audio cache : Yes
Make use of C2 pointers : No
Read offset correction : 48
Overread into Lead-In and Lead-Out : No
Fill up missing offset samples with silence : Yes
Delete leading and trailing silent blocks : No
Null samples used in CRC calculations : Yes
Used interface : Native Win32 interface for Win NT & 2000
Used output format : Monkey's Audio Lossless Encoder v3.99 DLL
Sample format : Normal Lossless Compression
TOC of the extracted CD
Track | Start | Length | Start sector | End sector
---------------------------------------------------------
1 | 0:00.00 | 17:54.03 | 0 | 80552
2 | 17:54.03 | 18:25.34 | 80553 | 163461
3 | 36:19.37 | 17:52.25 | 163462 | 243886
4 | 54:11.62 | 24:04.01 | 243887 | 352187
Range status and errors
Selected range
Filename D:\Torrent\John Russell - Analekta (2007)\John Russell - Analekta.ape
Peak level 98.9 %
Range quality 100.0 %
Copy CRC 7DBB0563
Copy OK
No errors occurred
AccurateRip summary
Track 1 not present in database
Track 2 not present in database
Track 3 not present in database
Track 4 not present in database
None of the tracks are present in the AccurateRip database
End of status report
Денис писал(а):
Третий сольный диск Джона Рассела содержит три дуэта и одну пьесу, исполненную коллективом QUAQUA. Все записи сделаны в 2006 и 2004 годах, так что слушатели могут составить адекватное представление о дне сегодняшнем одного из ветеранов свободной музыки. Впервые появившись на публике в 1973 году, Расселл быстро переключился на акустическую гитару, и в 80-е годы стал одним из центральных персонажей британской сцены. В его активе - как работа в постоянных составах, так и участие в разовых проектах, среди которых грандиозная сессия, известная под названием "Strings with Evan Parker". Несмотря на то, что молва заклеймила Джона Рассела как наследника Дерека Бейли, на мой взгляд, адепт акустической гитары обладает уникальной манерой и техникой звукоизвлечения. Академическая скованность, упрямство, переходящее в занудство - всего этого у Расселла нет. Его музыка напоминает гремучую смесь неидиоматической импровизации, кантри и сельского блюза. Она неуклюжа и расхлябана, иронична и необязательна, пропитана непередаваемым очарованием лузерства. Когда Джон играет, он кряхтит, напевает себе под нос обрывки мелодий, колотит по деке, скребет и царапает струны.
Пьеса, открывающая "Analekta" - это дуэт Расселла с саксофонистом Гарри Тоддом. Лидирующий тенор-саксофон тянет за собой размякшую гитару, которая следует за ним только из вежливости. При этом она постоянно поглядывает по сторонам, исчезает тогда, когда саксофон уходит на второй план, и заявляет о себе в полный голос, когда её настойчиво просят молчать. Последний раз Расселл и Тодд участвовали в записи пластинки, изданной лейблом Incis в далеком 1975 году. "Blart" - великолепный дуэт с джазовым трубачом Генри Лоутером. Полное взаимопонимание и теплая, дружеская атмосфера. Бархатный звук трубы и оттеняющая его прохлада гитары. Расселл моментально реагирует на игру партнера, жонглируя тембрами и аккордами. Третья пьеса сыграна с дамой. Её зовут Чефа Алонсо. Играет она на сопрано-саксофоне и перкуссии. Их восемнадцатиминутный дуэт - бриллиант альбома.
Завершают компакт-диск 24 минуты, сыгранные ансамблем из девяти человек. В состав QUAQUA Расселл отбирает тех музыкантов, с которыми ему не доводилось играть ранее. Помимо самого гитариста, старую гвардию представляют специалист по электронным инструментам Стив Бересфорд и скрипач Филипп Вочсманн. Остальные - рекруты, набранные из состава участников фестиваля Freedom Of The City. Результат выглядит, как неровная, трещащая по швам композиция, сотканная из пассажей лидера коллектива, причитаний вокалистов, незримого вкрапление электроники и хруста струн.
Машинное Отделение
Приватный:
Нет (DHT включён)
Размер:
387.07 Мб (405,875,516 байт) » файлов: 8
Участники:
0 раздают, 0 качают (0 участников всего)
Внешние участники:
2 раздают, 1 качают (3 участников всего) [ Обновить ]
Есть вопросы - пишите личное сообщение пользователю M0p94ok.
01:14
67
Нет комментариев. Ваш будет первым!