Поиск

(Free Improvisation) Evan Parker Electro-Acoustic Ensemble - Toward The Margins - 1997, APE (image + .cue), lossless

Треклист:
Evan Parker Electro-Acoustic Ensemble - Toward The Margins
Страна: UK
Жанр: Free Improvisation
Год выпуска: 1997
Формат: APE (image + .cue)
Битрейт аудио: lossless
Продолжительность: 1:01:01
Трэклист:
01. Toward the Margins
02 Turbulent Mirror
03 Field and Figure
04 The Regenerative Landscape (for AMM)
05. Chain of Chance
06. Trahutten.Shadow without an Object.Epanados
07. Born Cross-Eyed (Remembering Fuller)
08. Philipp's Pavilion
09. The Hundred Books (for Idries Shah)
10. Contra-Dance
Доп. информация:
Evan Parker soprano saxophone
Barry Guy double-bass
Paul Lytton percussion, live-electronics
Philipp Wachsmann violin, viola, live electronics, sound processing
Walter Prati live electronics, sound processing
Marco Vecchi live electronics, sound processing
http://ecmrecords.com/Catalogue/New_Series/1600/1612.php
http://allmusic.com/cg/amg.dll?p=amg&sql=10:jvftxqtkldae
 
Отчёт EAC
Exact Audio Copy V0.99 prebeta 4 from 23. January 2008
EAC extraction logfile from 19. May 2008, 11:20
Evan Parker Electro-Acoustic Ensemble / Toward The Margins
Used drive : _NEC DVD_RW ND-3500AG Adapter: 0 ID: 2
Read mode : Secure
Utilize accurate stream : Yes
Defeat audio cache : Yes
Make use of C2 pointers : No
Read offset correction : 48
Overread into Lead-In and Lead-Out : No
Fill up missing offset samples with silence : Yes
Delete leading and trailing silent blocks : No
Null samples used in CRC calculations : Yes
Used interface : Native Win32 interface for Win NT & 2000
Used output format : Internal WAV Routines
Sample format : 44.100 Hz; 16 Bit; Stereo
TOC of the extracted CD
Track | Start | Length | Start sector | End sector
---------------------------------------------------------
1 | 0:00.00 | 4:36.39 | 0 | 20738
2 | 4:36.39 | 5:57.00 | 20739 | 47513
3 | 10:33.39 | 7:08.69 | 47514 | 79682
4 | 17:42.33 | 3:38.35 | 79683 | 96067
5 | 21:20.68 | 4:21.67 | 96068 | 115709
6 | 25:42.60 | 6:22.62 | 115710 | 144421
7 | 32:05.47 | 6:04.19 | 144422 | 171740
8 | 38:09.66 | 4:31.47 | 171741 | 192112
9 | 42:41.38 | 2:54.07 | 192113 | 205169
10 | 45:35.45 | 7:35.67 | 205170 | 239361
11 | 53:11.37 | 4:12.00 | 239362 | 258261
12 | 57:23.37 | 3:38.01 | 258262 | 274612
Range status and errors
Selected range
Filename E:\EAC\Evan Parker Electro-Acoustic Ensemble 1997 Toward The Margins\Evan Parker Electro-Acoustic Ensemble - Toward The Margins.wav
Peak level 93.7 %
Range quality 100.0 %
Copy CRC 6A7185DE
Copy OK
No errors occurred
End of status report
Приватный:
Нет (DHT включён)
Размер:
226.59 Мб (237,599,601 байт) » файлов: 3
Участники:
0 раздают, 0 качают (0 участников всего)
Внешние участники:
2 раздают, 1 качают (3 участников всего) [ Обновить ]
Есть вопросы - пишите личное сообщение пользователю M0p94ok.
01:15
40
Нет комментариев. Ваш будет первым!