Поиск

(Free Improvisation, Avant-Garde) Evan Parker - Conic Sections {Ah Um} - 1993, FLAC (image + .cue), lossless

(Free Improvisation, Avant-Garde) Evan Parker - Conic Sections {Ah Um} - 1993, FLAC (image + .cue), lossless
Треклист:
Evan Parker
Conic Sections (for Kunio Nakamura)


Страна: UK
Жанр: Free Improvisation, Avant-Garde
Год выпуска: 1993
Формат: FLAC (image + .cue)
Битрейт аудио: lossless
Продолжительность: 70:15
1. Conic Section 1 17'20"
2. Conic Section 2 11'10"
3. Conic Section 3 25'10"
4. Conic Section 4 9'10"
5. Conic Section 5 7'40"
Recorded: Holywell Music Room, Oxford
Date: 21st June 1989
Digitally recorded by Michael Gerzon
Album release produced by Nick Purnell
Evan Parker soprano saxophone
(c)(p) 1993 ah um
ah um 015
 
EAC extraction logfile from 17. May 2008, 22:00
Exact Audio Copy V0.99 prebeta 4 from 23. January 2008
EAC extraction logfile from 17. May 2008, 22:00
Evan Parker / Conic Sections (for Kunio Nakamura)
Used drive : PLEXTOR DVDR PX-760A Adapter: 4 ID: 0
Read mode : Secure
Utilize accurate stream : Yes
Defeat audio cache : Yes
Make use of C2 pointers : No
Read offset correction : 30
Overread into Lead-In and Lead-Out : Yes
Fill up missing offset samples with silence : Yes
Delete leading and trailing silent blocks : No
Null samples used in CRC calculations : No
Used interface : Native Win32 interface for Win NT & 2000
Used output format : Internal WAV Routines
Sample format : 44.100 Hz; 16 Bit; Stereo
TOC of the extracted CD
Track | Start | Length | Start sector | End sector
---------------------------------------------------------
1 | 0:00.25 | 17:01.15 | 25 | 76614
2 | 17:01.40 | 11:02.42 | 76615 | 126306
3 | 28:04.07 | 25:16.18 | 126307 | 240024
4 | 53:20.25 | 9:12.22 | 240025 | 281446
5 | 62:32.47 | 7:42.53 | 281447 | 316149
Range status and errors
Selected range
Filename D:\Evan Parker - Conic Sections (for Kunio Nakamura).wav
Peak level 97.8 %
Range quality 100.0 %
Test CRC 31FDD907
Copy CRC 31FDD907
Copy OK
No errors occurred
AccurateRip summary
Track 1 not present in database
Track 2 not present in database
Track 3 not present in database
Track 4 not present in database
Track 5 not present in database
None of the tracks are present in the AccurateRip database
End of status report
Собственный рип с оригинального диска.
В комплекте полный набор сканов PNG/300dpi.
Приватный:
Нет (DHT включён)
Размер:
440.56 Мб (461,958,040 байт) » файлов: 11
Участники:
0 раздают, 0 качают (0 участников всего)
Внешние участники:
2 раздают, 1 качают (3 участников всего) [ Обновить ]
No seeders - write a personal message to user M0p94ok. Нет сидеров - пишите личное сообщение пользователю M0p94ok.
01:15
70
Нет комментариев. Ваш будет первым!