Поиск

(Free Improvisation) Derek Bailey & Henry Kaiser - Wireforks - 1995, APE (image + .cue), lossless

(Free Improvisation) Derek Bailey & Henry Kaiser - Wireforks - 1995, APE (image + .cue), lossless
Треклист:
Derek Bailey & Henry Kaiser - Wireforks
Страна: UK, USA
Жанр: Free Improvisation
Год выпуска: 1995
Формат: APE (image + .cue)
Битрейт аудио: lossless
Продолжительность: 1:13:46
Трэклист:
01. Quick Match (5:55)
02. Flights (4:48)
03. Red Flash (3:23)
04. Silver Tails (8:50)
05. Chrysanthemums (6:56)
06. Hanabi (7:26)
07. Flair (4:09)
08. Flare (2:29)
09. Ring Starmines (6:35)
10. Dark Fire (5:02)
11. Snake in the Grass (7:40)
12. Battle in the Clouds (7:01)
13. Safe and Sane (2:52)
Доп. информация:
http://allmusic.com/cg/amg.dll?p=amg&sql=10:09fixqqhldae
 
Отчёт EAC
Exact Audio Copy V0.99 prebeta 4 from 23. January 2008
EAC extraction logfile from 19. May 2008, 13:12
Derek Bailey & Henry Kaiser / Wireforks
Used drive : _NEC DVD_RW ND-3500AG Adapter: 0 ID: 2
Read mode : Secure
Utilize accurate stream : Yes
Defeat audio cache : Yes
Make use of C2 pointers : No
Read offset correction : 48
Overread into Lead-In and Lead-Out : No
Fill up missing offset samples with silence : Yes
Delete leading and trailing silent blocks : No
Null samples used in CRC calculations : Yes
Used interface : Native Win32 interface for Win NT & 2000
Used output format : Internal WAV Routines
Sample format : 44.100 Hz; 16 Bit; Stereo
TOC of the extracted CD
Track | Start | Length | Start sector | End sector
---------------------------------------------------------
1 | 0:00.00 | 5:54.53 | 0 | 26602
2 | 5:54.53 | 4:51.66 | 26603 | 48493
3 | 10:46.44 | 3:25.32 | 48494 | 63900
4 | 14:12.01 | 8:54.12 | 63901 | 103962
5 | 23:06.13 | 6:57.65 | 103963 | 135302
6 | 30:04.03 | 7:29.39 | 135303 | 169016
7 | 37:33.42 | 4:12.08 | 169017 | 187924
8 | 41:45.50 | 2:33.21 | 187925 | 199420
9 | 44:18.71 | 6:37.63 | 199421 | 229258
10 | 50:56.59 | 5:08.68 | 229259 | 252426
11 | 56:05.52 | 7:44.08 | 252427 | 287234
12 | 63:49.60 | 7:04.43 | 287235 | 319077
13 | 70:54.28 | 2:51.52 | 319078 | 331954
Range status and errors
Selected range
Filename E:\EAC\Derek Bailey & Henry Kaiser 1995 Wireforks\Derek Bailey & Henry Kaiser - Wireforks.wav
Peak level 100.0 %
Range quality 99.9 %
Copy CRC 38478671
Copy OK
No errors occurred
End of status report
Приватный:
Нет (DHT включён)
Размер:
309.15 Мб (324,164,619 байт) » файлов: 3
Участники:
0 раздают, 0 качают (0 участников всего)
Внешние участники:
2 раздают, 1 качают (3 участников всего) [ Обновить ]
Есть вопросы - пишите личное сообщение пользователю M0p94ok.
01:16
56
Нет комментариев. Ваш будет первым!