Вы используете незарегистрированную версию компонента "Вкладки"!

Поиск

(Hardcore free-jazz, Jazzcore, Noisecore) [CD] Andrew d'Angelo Trio - Morthana with Pride - 2005, FLAC (image+.cue), lossless

(Hardcore free-jazz, Jazzcore, Noisecore) [CD] Andrew d'Angelo Trio - Morthana with Pride - 2005, FLAC (image+.cue), lossless
Треклист:
Andrew d'Angelo Trio - Morthana with Pride
Жанр: Hardcore free-jazz, Jazzcore, Noisecore
Носитель: CD
Страна-производитель диска: Japan
Год издания: 2005
Издатель (лейбл): Doubtmusic
Номер по каталогу: dmf-105
Страна исполнителя (группы): USA
Аудиокодек: FLAC (*.flac)
Тип рипа: image+.cue
Битрейт аудио: lossless
Продолжительность: 43:06
Релизер: Torturegarden
Наличие сканов в содержимом раздачи: нет
1 My Prostate
2 Skriker
3 Reef Zar Ja
4 Cheek Spread
5 Koavur
6 Space Hear
7 HB & Co
8 Kug Ronke
9 Eat Shit Mutherfucker!!Восстановленный релиз Torturegarden (ссылка)
 
Лог создания рипа
Exact Audio Copy V0.99 prebeta 4 from 23. January 2008
Отчёт EAC об извлечении, выполненном 17. октября 2008, 3:05
Andrew d'Angelo Trio / Morthana with Pride
Дисковод: Optiarc DVD RW AD-7170A Adapter: 0 ID: 1
Режим чтения : Достоверность
Использование точного потока : Да
Отключение кэша аудио : Да
Использование указателей C2 : Нет
Коррекция смещения при чтении : 48
Способность читать области Lead-in и Lead-out : Нет
Заполнение пропущенных сэмплов тишиной : Да
Удаление блоков с тишиной в начале и конце : Нет
При вычислениях CRC использовались нулевые сэмплы : Да
Интерфейс : Встроенный Win32-интерфейс для Win NT/2000
Выходной формат : Пользовательский кодировщик
Выбранный битрейт : 768 kBit/s
Качество : Высокий
Добавление ID3-тэга : Нет
Утилита сжатия : D:\Program Files\Exact Audio Copy\FLAC\FLAC.EXE
Дополнительные параметры : -6 -V -T "ARTIST=%a" -T "TITLE=%t" -T "ALBUM=%g" -T "DATE=%y" -T "TRACKNUMBER=%n" -T "GENRE=%m" -T "COMMENT=%e" %s -o %d
TOC извлечённого CD
Трек | Старт | Длительность | Начальный сектор | Конечный сектор
---------------------------------------------------------------------
1 | 0:00.00 | 4:37.69 | 0 | 20843
2 | 4:37.69 | 7:12.23 | 20844 | 53266
3 | 11:50.17 | 4:52.38 | 53267 | 75204
4 | 16:42.55 | 1:26.00 | 75205 | 81654
5 | 18:08.55 | 5:13.24 | 81655 | 105153
6 | 23:22.04 | 7:39.19 | 105154 | 139597
7 | 31:01.23 | 4:02.61 | 139598 | 157808
8 | 35:04.09 | 3:39.34 | 157809 | 174267
9 | 38:43.43 | 5:02.36 | 174268 | 196953
Характеристики диапазона извлечения и сообщения об ошибках
Выбранный диапазон
Имя файла D:\EAC\Andrew d'Angelo Trio - Morthana with Pride.wav
Пиковый уровень 94.4 %
Качество диапазона 99.9 %
CRC копии 15A1F0C6
Копирование... OK
Ошибок не произошло
AccurateRip: сводка
Трек 1 нет в базе данных
Трек 2 нет в базе данных
Трек 3 нет в базе данных
Трек 4 нет в базе данных
Трек 5 нет в базе данных
Трек 6 нет в базе данных
Трек 7 нет в базе данных
Трек 8 нет в базе данных
Трек 9 нет в базе данных
Ни одного трека нет в базе AccurateRip
Конец отчёта
 
Содержание индексной карты (.CUE)
REM GENRE Jazz
REM DATE 2005
REM DISCID 5D0A4209
REM COMMENT "ExactAudioCopy v0.99pb4"
PERFORMER "Andrew d'Angelo Trio"
TITLE "Morthana with Pride"
FILE "Andrew d'Angelo Trio - Morthana with Pride.flac" WAVE
TRACK 01 AUDIO
TITLE "My Prostate"
PERFORMER "Andrew d'Angelo Trio"
INDEX 01 00:00:00
TRACK 02 AUDIO
TITLE "Skrinker"
PERFORMER "Andrew d'Angelo Trio"
INDEX 00 04:33:24
INDEX 01 04:37:69
TRACK 03 AUDIO
TITLE "Reef Zar Ja"
PERFORMER "Andrew d'Angelo Trio"
INDEX 00 11:44:47
INDEX 01 11:50:17
TRACK 04 AUDIO
TITLE "Cheek Spread"
PERFORMER "Andrew d'Angelo Trio"
INDEX 00 16:38:10
INDEX 01 16:42:55
TRACK 05 AUDIO
TITLE "Koavur"
PERFORMER "Andrew d'Angelo Trio"
INDEX 00 18:02:10
INDEX 01 18:08:55
TRACK 06 AUDIO
TITLE "Space Hear"
PERFORMER "Andrew d'Angelo Trio"
INDEX 00 23:17:34
INDEX 01 23:22:04
TRACK 07 AUDIO
TITLE "HB & Co"
PERFORMER "Andrew d'Angelo Trio"
INDEX 00 30:54:53
INDEX 01 31:01:23
TRACK 08 AUDIO
TITLE "Kug Ronke"
PERFORMER "Andrew d'Angelo Trio"
INDEX 00 34:58:39
INDEX 01 35:04:09
TRACK 09 AUDIO
TITLE "Eat Shit Mutherfucker!!"
PERFORMER "Andrew d'Angelo Trio"
INDEX 00 38:38:73
INDEX 01 38:43:43
 
Об альбоме
Recorded by Peter Karl at Peter Karl Studios, Brooklyn, November 2004
Mixed and edited by MOHA at Dog Bay Studios, Norway, March 2005
Mastered by Tsutomu Suto at Morgue-sha
Artwork by Andrew d'Angelo
Design by Akira Sasaki
Produced by Morthana and Jun Numata
Released in September 2005
N.Y. based extreme saxophonist, Andrew d'Angelo formed "Mortahana". This is their milsetone studio work! This music consists by saxophone (bass-clarinet) + electric guitar + two drums, and what's more, + screaming voice, is not only intense but also feathery.
For the longest time, Andrew D'Angelo has been a partner in various communal projects and Morthana with Pride!! marks his debut as a leader. While the music is still the result of a collective process, it unmistakably bears the stamp of the reedist's strong personality. With the support of two young Norwegians, guitarist Anders Hana and drummer Morten J. Olsen, as well as guest drummer Mike Pride, who occasionally partakes in fits of insanity and contributes demented vocals, the outspoken D'Angelo just lets it loose and never looks back. This often produces furious sonic assaults that are reminiscent of John Zorn's Naked City, and are sustained at length. However, instead of covering famous tunes or creating miniatures, the leader and his cohorts appear less calculating, go for the jugular, and strive to express freedom at its rawest. They nevertheless provide a few moments of respite during which they work on texture and sound structure. But don't get fooled, this music is clearly not for the faint of heart.
 
Состав
Andrew d'Angelo: alto sax, bass clarinet, baritone sax
Anders Hana: electric guitar, effects
Morten J. Olsen: drum kit
Mike Pride: voice, effects, screaming, drum kit
По всем вопросам пишите личное сообщение пользователю M0p94ok.
05:42
180
Нет комментариев. Ваш будет первым!