Вы используете незарегистрированную версию компонента "Вкладки"!

Поиск

(Free Improvisation, Ethnic Jazz, Experimental) [CD] Joshua Abrams - Represencing - 2012, FLAC (tracks+.cue), lossless

Треклист:
Joshua Abrams / Represencing
Жанр: Free Improvisation, Ethnic Jazz, Experimental
Носитель: CD
Страна-производитель диска: US
Год издания: 2012
Издатель (лейбл): Eremite Records
Номер по каталогу: MTE-58
Аудиокодек: FLAC (*.flac)
Тип рипа: tracks+.cue
Битрейт аудио: lossless
Продолжительность: 1:01:41
Источник (релизер): kivius
Наличие сканов в содержимом раздачи: нет
Треклист:
1 San Anto 4:01
2 Represencing 10:24
3 Moon Hunger 4:18
4 Sound Talisman 5:51
5 Sungazer 2:48
6 The BA 2:23
7 Enter Mountain Amulet 1:41
8 Cloud Walking 5:31
9 Sound Talisman (Live) 24:47
 
Лог создания рипа
X Lossless Decoder version 20140504 (147.0)
XLD extraction logfile from 2014-10-25 18:51:39 -0700
Joshua Abrams / Represencing
Used drive : MATSHITA DVD-R UJ-8A8 (revision HB14)
Media type : Pressed CD
Ripper mode : XLD Secure Ripper
Disable audio cache : OK for the drive with a cache less than 1375KiB
Make use of C2 pointers : NO
Read offset correction : 102
Max retry count : 20
Gap status : Analyzed, Appended (except HTOA)
TOC of the extracted CD
Track | Start | Length | Start sector | End sector
---------------------------------------------------------
1 | 00:00:00 | 04:00:59 | 0 | 18058
2 | 04:00:59 | 10:23:38 | 18059 | 64821
3 | 14:24:22 | 04:17:34 | 64822 | 84130
4 | 18:41:56 | 05:50:37 | 84131 | 110417
5 | 24:32:18 | 02:47:50 | 110418 | 122992
6 | 27:19:68 | 02:22:74 | 122993 | 133716
7 | 29:42:67 | 01:41:17 | 133717 | 141308
8 | 31:24:09 | 05:30:66 | 141309 | 166124
9 | 36:55:00 | 24:46:52 | 166125 | 277626
AccurateRip Summary
Disc not found in AccurateRip DB.
All Tracks
Album gain : -5.27 dB
Peak : 0.954010
Statistics
Read error : 0
Jitter error (maybe fixed) : 0
Retry sector count : 0
Damaged sector count : 0
Track 01
Filename : /Users/val/Music/01 Joshua Abrams - Track 01.flac
Pre-gap length : 00:02:00
Track gain : -3.84 dB
Peak : 0.945557
CRC32 hash (test run) : 2B7D7D0C
CRC32 hash : 2B7D7D0C
CRC32 hash (skip zero) : 4B24BFFB
AccurateRip v1 signature : FB2E3F85
AccurateRip v2 signature : C97326DF
->Track not present in AccurateRip database.
Statistics
Read error : 0
Jitter error (maybe fixed) : 0
Retry sector count : 0
Damaged sector count : 0
Track 02
Filename : /Users/val/Music/02 Joshua Abrams - Track 02.flac
Track gain : -3.57 dB
Peak : 0.945190
CRC32 hash (test run) : 156460ED
CRC32 hash : 156460ED
CRC32 hash (skip zero) : A29DFEA4
AccurateRip v1 signature : 65AFF4E2
AccurateRip v2 signature : 5D08330D
->Track not present in AccurateRip database.
Statistics
Read error : 0
Jitter error (maybe fixed) : 0
Retry sector count : 0
Damaged sector count : 0
Track 03
Filename : /Users/val/Music/03 Joshua Abrams - Track 03.flac
Track gain : -3.52 dB
Peak : 0.945160
CRC32 hash (test run) : CB1740AF
CRC32 hash : CB1740AF
CRC32 hash (skip zero) : 0296B573
AccurateRip v1 signature : 73537CBA
AccurateRip v2 signature : 0953BE30
->Track not present in AccurateRip database.
Statistics
Read error : 0
Jitter error (maybe fixed) : 0
Retry sector count : 0
Damaged sector count : 0
Track 04
Filename : /Users/val/Music/04 Joshua Abrams - Track 04.flac
Track gain : -3.56 dB
Peak : 0.954010
CRC32 hash (test run) : EA73A45D
CRC32 hash : EA73A45D
CRC32 hash (skip zero) : 56AD8E87
AccurateRip v1 signature : 21BF22C6
AccurateRip v2 signature : 2CC9A417
->Track not present in AccurateRip database.
Statistics
Read error : 0
Jitter error (maybe fixed) : 0
Retry sector count : 0
Damaged sector count : 0
Track 05
Filename : /Users/val/Music/05 Joshua Abrams - Track 05.flac
Track gain : -4.33 dB
Peak : 0.879578
CRC32 hash (test run) : BA6F2E8B
CRC32 hash : BA6F2E8B
CRC32 hash (skip zero) : 800B06BB
AccurateRip v1 signature : 076DF7BA
AccurateRip v2 signature : E3D94620
->Track not present in AccurateRip database.
Statistics
Read error : 0
Jitter error (maybe fixed) : 0
Retry sector count : 0
Damaged sector count : 0
Track 06
Filename : /Users/val/Music/06 Joshua Abrams - Track 06.flac
Track gain : -5.05 dB
Peak : 0.850708
CRC32 hash (test run) : C9B2951C
CRC32 hash : C9B2951C
CRC32 hash (skip zero) : 80D51CF1
AccurateRip v1 signature : E13BDB33
AccurateRip v2 signature : 7CA0A66C
->Track not present in AccurateRip database.
Statistics
Read error : 0
Jitter error (maybe fixed) : 0
Retry sector count : 0
Damaged sector count : 0
Track 07
Filename : /Users/val/Music/07 Joshua Abrams - Track 07.flac
Track gain : -1.50 dB
Peak : 0.925964
CRC32 hash (test run) : 32EF1322
CRC32 hash : 32EF1322
CRC32 hash (skip zero) : B765C94A
AccurateRip v1 signature : 218C48F9
AccurateRip v2 signature : 54C0C5C8
->Track not present in AccurateRip database.
Statistics
Read error : 0
Jitter error (maybe fixed) : 0
Retry sector count : 0
Damaged sector count : 0
Track 08
Filename : /Users/val/Music/08 Joshua Abrams - Track 08.flac
Track gain : -4.35 dB
Peak : 0.932861
CRC32 hash (test run) : 8C76FEAA
CRC32 hash : 8C76FEAA
CRC32 hash (skip zero) : 117C3BE5
AccurateRip v1 signature : A3A140FC
AccurateRip v2 signature : 1778173A
->Track not present in AccurateRip database.
Statistics
Read error : 0
Jitter error (maybe fixed) : 0
Retry sector count : 0
Damaged sector count : 0
Track 09
Filename : /Users/val/Music/09 Joshua Abrams - Track 09.flac
Track gain : -5.72 dB
Peak : 0.934204
CRC32 hash (test run) : 19220011
CRC32 hash : 19220011
CRC32 hash (skip zero) : 93ED6804
AccurateRip v1 signature : EC529D40
AccurateRip v2 signature : 8536A40E
->Track not present in AccurateRip database.
Statistics
Read error : 0
Jitter error (maybe fixed) : 0
Retry sector count : 0
Damaged sector count : 0
No errors occurred
End of status report
-----BEGIN XLD SIGNATURE-----
dCyh6U4k2S1_i0D7iiQwWlR6sdn3_yRKDygToqd3VeBLtHm3qFJXTrbU.0rg.WMx0EHV58CCfhcbszCGNxOi1uHj.OFsqIOpLLq3W2q
-----END XLD SIGNATURE-----
 
Содержание индексной карты (.CUE)
TITLE "Represencing"
PERFORMER "Joshua Abrams"
REM GENRE "Jazz"
REM DATE "2014"
REM DISCNUMBER 1
REM TOTALDISCS 1
REM DISCID 780E7509
FILE "CDImage.wav" WAVE
TRACK 01 AUDIO
TITLE "San Anto"
INDEX 01 00:00:00
TRACK 02 AUDIO
TITLE "Represencing"
INDEX 01 04:00:59
TRACK 03 AUDIO
TITLE "Moon Hunger"
INDEX 01 14:24:22
TRACK 04 AUDIO
TITLE "Sound Talisman"
INDEX 01 18:41:56
TRACK 05 AUDIO
TITLE "Sungazer"
INDEX 01 24:32:18
TRACK 06 AUDIO
TITLE "The Ba"
INDEX 01 27:19:68
TRACK 07 AUDIO
TITLE "Enter Mountain Amulet"
INDEX 01 29:42:67
TRACK 08 AUDIO
TITLE "Cloud Walking"
INDEX 01 31:24:09
TRACK 09 AUDIO
TITLE "Sound Talisman (Live)"
INDEX 01 36:55:00
 
Об альбоме (сборнике)
Chicago jazz/improvised music bassist Joshua Abrams brings out the guimbri, a three-stringed North African ceremonial lute, when playing with his Natural Information Society. Live, the instrument’s hypnotic groove provides the supple, willowy base from which the other instrumentalists leap. On his new album, Represencing, Abrams assembles some of the city’s best improvisers to work over the guimbri, but that droning beauty always lies at the core.
While plenty of modern musicians denounce the use of iPods and other on-the-go listening, the necessity of sitting at a record player and focusing for ritual trance music is kind of undeniable – not to mention that this is a vinyl-only release. That immediacy and communal relationship is one that carries over from the recording process itself, as Abrams invited the improvisers into his home studio.
Dropping the needle onto the first side of the LP initiates the upward spiral, Chad Taylor’s gong and hand drums interlocking with Abrams’ guimbri, bubbling springs of David Boykin’s tenor saxophone purling outwards. The night falls as the first half closes on “Moon Hunger”, Boykin’s lightly breathed flourishes, the drama of rippling organ and Abrams’ lithe, repeating tone-clusters falling away into the night.
The second half of the disc re-starts the process, gongs and harmonium drone bringing the listener back into the meditative state. The sun rises again as well, Tomeka Reid’s cello curling around and flitting in eclipsing glory. It all closes with the entrancing “Cloud Walking”, with Michael Zerang somehow making even the tambourine an interesting addition to a track.
The core, though, remains the guimbri, Abrams’ playing on songs like “Enter Mountain Amulet” hitching, stuttering, and flowing at all the right moments to get you swaying like a mystic. Represencing is the kind of album that effaces the reality that you know exists outside of it, returning you to a time and place in which this sort of ritual trance focuses life.
 
Состав
Joshua Abrams: guimbri, organ, ms20, harps, bells, harmonium, mpc
Lisa Alvarado: gong & harmonium (4, 7, 8)
Mikel Avery: drums (4, 5)
David Boykin: tenor saxophone (4, 6)
Emmett Kelly: electric & acoustic guitars (4, 7)
Nicole Mitchell: flutes (6)
Jeff Parker: electric guitar (8)
Tomeka Reid: cello (5)
Jason Stein: bass clarinet (6)
Chad Taylor: gong & drums (1, 2)
Michael Zerang: tambourine (8)
По всем вопросам пишите личное сообщение пользователю M0p94ok.
05:43
182
Нет комментариев. Ваш будет первым!