Вы используете незарегистрированную версию компонента "Вкладки"!

Поиск

(Avant-Garde Jazz, Free Improvisation) [CD] Joelle Leandre & Pascal Contet - 3 - 2014, FLAC (tracks+.cue), lossless

(Avant-Garde Jazz, Free Improvisation) [CD] Joelle Leandre & Pascal Contet - 3 - 2014, FLAC (tracks+.cue), lossless
Треклист:
Joelle Leandre & Pascal Contet / 3
Жанр: Avant-Garde Jazz, Free Improvisation
Носитель: CD
Страна-производитель диска: France
Год издания: 2014
Издатель (лейбл): Ayler Records
Номер по каталогу: AYLCD-137
Страна исполнителя (группы): France
Аудиокодек: FLAC (*.flac)
Тип рипа: tracks+.cue
Битрейт аудио: lossless
Продолжительность: 51:44
Источник (релизер): waffles.fm, dtromp
Наличие сканов в содержимом раздачи:
Треклист:
1 Quatre 7:16
2 Soixante 13:18
3 Vingt-Neuf 6:18
4 Trente-Trois 5:54
5 Seize 5:40
6 Trente-Cinq 4:17
7 Cinquante-Trois 8:49
 
Лог создания рипа
Exact Audio Copy V1.0 beta 3 from 29. August 2011
EAC extraction logfile from 3. November 2014, 10:08
Joelle Leandre & Pascal Contet / 3
Used drive : ATAPI iHBS112 2 Adapter: 2 ID: 0
Read mode : Secure
Utilize accurate stream : Yes
Defeat audio cache : Yes
Make use of C2 pointers : No
Read offset correction : 6
Overread into Lead-In and Lead-Out : No
Fill up missing offset samples with silence : Yes
Delete leading and trailing silent blocks : No
Null samples used in CRC calculations : Yes
Used interface : Native Win32 interface for Win NT & 2000
Gap handling : Appended to previous track
Used output format : User Defined Encoder
Selected bitrate : 1024 kBit/s
Quality : Low
Add ID3 tag : No
Command line compressor : C:\Program Files\FLAC Frontend\tools\flac.exe
Additional command line options : -8 -V -T "ARTIST=%artist%" -T "TITLE=%title%" -T "ALBUM=%albumtitle%" -T "DATE=%year%" -T "TRACKNUMBER=%tracknr%" -T "TOTALTRACKS=%numtracks%" -T "GENRE=%genre%" -T "ALBUMARTIST=%albumartist%" -T "ALBUM ARTIST=%albumartist%" -T "COMPOSER=%composer%" -T "PERFORMER=%albuminterpret%" -T "DISCNUMBER=%cdnumber%" -T "TOTALDISCS=%totalcds%" -T "COMMENT=EAC Secure Mode, Test & Copy, AccurateRip, FLAC -8" %source%
TOC of the extracted CD
Track | Start | Length | Start sector | End sector
---------------------------------------------------------
1 | 0:00.00 | 7:16.64 | 0 | 32763
2 | 7:16.64 | 13:18.43 | 32764 | 92656
3 | 20:35.32 | 6:18.38 | 92657 | 121044
4 | 26:53.70 | 5:54.18 | 121045 | 147612
5 | 32:48.13 | 5:43.65 | 147613 | 173402
6 | 38:32.03 | 4:22.54 | 173403 | 193106
7 | 42:54.57 | 8:49.53 | 193107 | 232834
Track 1
Filename P:\DL\Joelle Leandre & Pascal Contet - 3 (2014) [FLAC]\01 - Quatre.wav
Pre-gap length 0:00:02.00
Peak level 97.7 %
Extraction speed 5.5 X
Track quality 100.0 %
Test CRC 937889AA
Copy CRC 937889AA
Track not present in AccurateRip database
Copy OK
Track 2
Filename P:\DL\Joelle Leandre & Pascal Contet - 3 (2014) [FLAC]\02 - Soixante.wav
Peak level 100.0 %
Extraction speed 6.9 X
Track quality 100.0 %
Test CRC 6FFD6349
Copy CRC 6FFD6349
Track not present in AccurateRip database
Copy OK
Track 3
Filename P:\DL\Joelle Leandre & Pascal Contet - 3 (2014) [FLAC]\03 - Vingt-Neuf.wav
Peak level 98.6 %
Extraction speed 7.6 X
Track quality 100.0 %
Test CRC 54631698
Copy CRC 54631698
Track not present in AccurateRip database
Copy OK
Track 4
Filename P:\DL\Joelle Leandre & Pascal Contet - 3 (2014) [FLAC]\04 - Trente-Trois.wav
Peak level 52.6 %
Extraction speed 7.2 X
Track quality 99.9 %
Test CRC F4929727
Copy CRC F4929727
Track not present in AccurateRip database
Copy OK
Track 5
Filename P:\DL\Joelle Leandre & Pascal Contet - 3 (2014) [FLAC]\05 - Seize.wav
Peak level 65.4 %
Extraction speed 8.3 X
Track quality 100.0 %
Test CRC FDBA5DF9
Copy CRC FDBA5DF9
Track not present in AccurateRip database
Copy OK
Track 6
Filename P:\DL\Joelle Leandre & Pascal Contet - 3 (2014) [FLAC]\06 - Trente-Cinq.wav
Pre-gap length 0:00:03.00
Peak level 61.4 %
Extraction speed 8.7 X
Track quality 100.0 %
Test CRC C8765B46
Copy CRC C8765B46
Track not present in AccurateRip database
Copy OK
Track 7
Filename P:\DL\Joelle Leandre & Pascal Contet - 3 (2014) [FLAC]\07 - Cinquante-Trois.wav
Pre-gap length 0:00:05.00
Peak level 100.0 %
Extraction speed 9.6 X
Track quality 100.0 %
Test CRC 61BDF745
Copy CRC 61BDF745
Track not present in AccurateRip database
Copy OK
None of the tracks are present in the AccurateRip database
No errors occurred
End of status report
---- CUETools DB Plugin V2.1.3
[CTDB TOCID: MbP2IKEWKX1K8L48Hr8VRNhYuzU-] disk not present in database, Submit result: MbP2IKEWKX1K8L48Hr8VRNhYuzU- has been uploaded
==== Log checksum A3E3149BD8017DCFF199FAC73E115CAB9B05C349544BD48AE81914C1EE91E991 ====
 
Содержание индексной карты (.CUE)
REM GENRE Jazz
REM DATE 2014
REM DISCID 5A0C2007
REM COMMENT "ExactAudioCopy v1.0b3"
PERFORMER "Joelle Leandre & Pascal Contet"
TITLE "3"
FILE "01 - Quatre.wav" WAVE
TRACK 01 AUDIO
TITLE "Quatre"
PERFORMER "Joelle Leandre & Pascal Contet"
FLAGS DCP
INDEX 01 00:00:00
FILE "02 - Soixante.wav" WAVE
TRACK 02 AUDIO
TITLE "Soixante"
PERFORMER "Joelle Leandre & Pascal Contet"
FLAGS DCP
INDEX 01 00:00:00
FILE "03 - Vingt-Neuf.wav" WAVE
TRACK 03 AUDIO
TITLE "Vingt-Neuf"
PERFORMER "Joelle Leandre & Pascal Contet"
FLAGS DCP
INDEX 01 00:00:00
FILE "04 - Trente-Trois.wav" WAVE
TRACK 04 AUDIO
TITLE "Trente-Trois"
PERFORMER "Joelle Leandre & Pascal Contet"
FLAGS DCP
INDEX 01 00:00:00
FILE "05 - Seize.wav" WAVE
TRACK 05 AUDIO
TITLE "Seize"
PERFORMER "Joelle Leandre & Pascal Contet"
FLAGS DCP
INDEX 01 00:00:00
TRACK 06 AUDIO
TITLE "Trente-Cinq"
PERFORMER "Joelle Leandre & Pascal Contet"
FLAGS DCP
INDEX 00 05:40:65
FILE "06 - Trente-Cinq.wav" WAVE
INDEX 01 00:00:00
TRACK 07 AUDIO
TITLE "Cinquante-Trois"
PERFORMER "Joelle Leandre & Pascal Contet"
FLAGS DCP
INDEX 00 04:17:54
FILE "07 - Cinquante-Trois.wav" WAVE
INDEX 01 00:00:00
 
Лог проверки качества
d:\>d:\aucdtect -d/-m0 d:\zzz\*.wav
auCDtect: CD records authenticity detector, version 0.8.2
Copyright (c) 2004 Oleg Berngardt. All rights reserved.
Copyright (c) 2004 Alexander Djourik. All rights reserved.
------------------------------------------------------------
Processing file: [01. Quatre.wav]
------------------------------------------------------------
This track looks like CDDA with probability 100%
------------------------------------------------------------
Processing file: [02. Soixante.wav]
------------------------------------------------------------
This track looks like CDDA with probability 100%
------------------------------------------------------------
Processing file: [03. Vingt-Neuf.wav]
------------------------------------------------------------
This track looks like CDDA with probability 100%
------------------------------------------------------------
Processing file: [04. Trente-Trois.wav]
------------------------------------------------------------
This track looks like CDDA with probability 100%
------------------------------------------------------------
Processing file: [05. Seize.wav]
------------------------------------------------------------
This track looks like CDDA with probability 100%
------------------------------------------------------------
Processing file: [06. Trente-Cinq.wav]
------------------------------------------------------------
This track looks like CDDA with probability 100%
------------------------------------------------------------
Processing file: [07. Cinquante-Trois.wav]
------------------------------------------------------------
This track looks like CDDA with probability 100%
------------------------------------------------------------
Final Conclusion:
------------------------------------------------------------
These tracks looks like CDDA with probability 100%
Доп. информация:
 
Ayler Review
Created in 1994, the duo of Joлlle Lйandre and Pascal Contet was instantly praised both by the critics and the public for the strength, inventiveness and creativity of the two musicians on their first album, published by Concord/7 Media. 11 years later, Lйandre and Contet met again in the studio to record their second CD for Clean Feed, Freeway, built on a series of twelve scenes.
Recorded live at Carrй Bleu in Poitiers in 2012, the 2014 release of 3 celebrates the duo’s 20th anniversary, and again, their emancipated and “comprovised” chamber music (incorporating all boldness – microtonality , dissonance, polyphonies, … – but never indulging in a mere exhibition of technique and virtuosity) surprises us by tracing its path in the depth, intimacy and resources of a musical friendship where listening remains inexhaustible.
 
Состав
Joelle Leandre, double bass
Pascal Contet, accordion
По всем вопросам пишите личное сообщение пользователю M0p94ok.
05:41
149
Нет комментариев. Ваш будет первым!